Скачать через торрент музыку Бумбараш бесплатно без регистрации torrent

Если у вас наблюдаются проблемы со скриншотами, переходом по ссылками, скачиванием торрентов - проблемы в блокировщике рекламы AdBlock. #хорошегоДня!


Статистика раздачи
Размер:  206 MB   |    Зарегистрирован:  5 лет 8 месяцев   |    .torrent скачан:  44 раза   |   
Раздают:  1  
   
Загрузка...
 
Автор Сообщение

uzi2009

avatar uzi2009


Бумбараш



Жанр: Soundtrack / Score
Композитор: Владимир Дашкевич
Год выпуска диска: 1996
Год выпуска фильма: 1971
Страна-производитель диска: Россия
Аудио кодек: WavPack (*.wv)
Тип рипа: image+.cue
Битрейт аудио: lossless
Продолжительность: 42:42
Наличие сканов в содержимом раздачи: нет
01. Русские позиции (инст.пьеса) (6:24)
02. Песня Бумбараша на паровозе (В.Золотухин) (2:25)
03. Песня Бумбараша 'А вот я на фронте был...' (В.Золотухин) (1:25)
04. Песня Гаврилы (Ю.Смирнов) (2:29)
05. 'Ходят кони' (В.Золотухин) (2:28)
06. 'Видение Варвары' (инстр.пьеса) (0:52)
07. Романс Софьи 'В балом платье с причудливым бантом' (Г.Туфтина) (2:51)
08. Шансоньетка Софии (Г.Туфтина) (1:46)
09. На могиле Яшки (инстр.пьеса) (2:04)
10. Песня Левки 'Журавль по небу летит...' (А.Хочинский, В.Золотухин) (2:53)
11. Танец 'Страдание' (инстр.пьеса) (2:59)
12. 'Марш четвартой роты' (А.Хочинский, В.Золотухин) (1:36)
13. Размышления Софьи (инстр.пьеса) (2:01)
14. Бумбараш и Варя в церкви (инстр.пьеса) (2:13)
15. Офицерский марш (инстр.пьеса) (2:39)
16. Гибель Софьи (инстр.пьеса) (1:01)
17. 'Ходят кони' (В.Золотухин, Г.Туфтина, Ю.Смирнов) (1:54)
18. Финал (инстр.пьеса) (2:42)

 
Exact Audio Copy V0.99 prebeta 3 from 28. July 2007

Отчёт EAC об извлечении, выполненном 28. февраля 2008, 8:37

Сборник / Музыка и песни из т\ф "Бумбараш"

Дисковод: Optiarc DVD RW AD-7543A Adapter: 0 ID: 0

Режим чтения : ДостоверностьИспользование точного потока : ДаОтключение кэша аудио : ДаИспользование указателей C2 : Нет

Коррекция смещения при чтении : 48Способность читать области Lead-in и Lead-out : НетЗаполнение пропущенных сэмплов тишиной : ДаУдаление блоков с тишиной в начале и конце : НетПри вычислениях CRC использовались нулевые сэмплы : ДаИнтерфейс : Встроенный Win32-интерфейс для Win NT/2000

Выходной формат : Пользовательский кодировщикВыбранный битрейт : 1024 kBit/sКачество : ВысокийДобавление ID3-тэга : НетУтилита сжатия : C:\Program Files\Wavpack\wavpack.exeДополнительные параметры : -w "Cuesheet=@*.cue" -w "Artist=%a" -w "Title=%t" -w "Album=%g" -w "Year=%y" -w "Track=%n" -w "Genre=%m" -h %s %d

TOC извлечённого CD

Трек | Старт | Длительность | Начальный сектор | Конечный сектор --------------------------------------------------------------------- 1 | 0:00.00 | 6:24.35 | 0 | 28834 2 | 6:24.35 | 2:24.72 | 28835 | 39706 3 | 8:49.32 | 1:24.53 | 39707 | 46059 4 | 10:14.10 | 2:29.10 | 46060 | 57244 5 | 12:43.20 | 2:27.40 | 57245 | 68309 6 | 15:10.60 | 0:51.72 | 68310 | 72206 7 | 16:02.57 | 2:51.30 | 72207 | 85061 8 | 18:54.12 | 1:45.73 | 85062 | 93009 9 | 20:40.10 | 2:04.05 | 93010 | 102314 10 | 22:44.15 | 2:53.07 | 102315 | 115296 11 | 25:37.22 | 2:58.60 | 115297 | 128706 12 | 28:36.07 | 1:36.18 | 128707 | 135924 13 | 30:12.25 | 2:01.02 | 135925 | 145001 14 | 32:13.27 | 2:13.28 | 145002 | 155004 15 | 34:26.55 | 2:38.45 | 155005 | 166899 16 | 37:05.25 | 1:00.72 | 166900 | 171471 17 | 38:06.22 | 1:54.12 | 171472 | 180033 18 | 40:00.34 | 2:41.58 | 180034 | 192166

Характеристики диапазона извлечения и сообщения об ошибках

Выбранный диапазон

Имя файла C:\Temp\Сборник - Музыка и песни из т ф Бумбараш.wav

Пиковый уровень 98.0 % Качество диапазона 99.9 % CRC теста 666E1749 CRC копии 666E1749 Копирование... OK

Ошибок не произошло

AccurateRip: сводка

Трек 1 нет в базе данныхТрек 2 нет в базе данныхТрек 3 нет в базе данныхТрек 4 нет в базе данныхТрек 5 нет в базе данныхТрек 6 нет в базе данныхТрек 7 нет в базе данныхТрек 8 нет в базе данныхТрек 9 нет в базе данныхТрек 10 нет в базе данныхТрек 11 нет в базе данныхТрек 12 нет в базе данныхТрек 13 нет в базе данныхТрек 14 нет в базе данныхТрек 15 нет в базе данныхТрек 16 нет в базе данныхТрек 17 нет в базе данныхТрек 18 нет в базе данных

Ни одного трека нет в базе AccurateRip

Конец отчёта
 
F:\Бумбараш - Soundtrack (1996)\Сборник - Музыка и песни из т ф Бумбараш.wv

Checking AccurateRip database

Track ->> Ripping Status ->> ->> [Disc ID: 001e431c-fa0a0212]

1 ->> Accurately Ripped (confidence 1) [aaf37841] 2 ->> Accurately Ripped (confidence 1) [7d46510f] 3 ->> Accurately Ripped (confidence 1) [9ef5ec99] 4 ->> Accurately Ripped (confidence 1) [3bec8960] 5 ->> Accurately Ripped (confidence 1) [654af644] 6 ->> Accurately Ripped (confidence 1) [31a530a0] 7 ->> Accurately Ripped (confidence 1) [99dfe0ec] 8 ->> Accurately Ripped (confidence 1) [4546a263] 9 ->> Accurately Ripped (confidence 1) [1200add3] 10 ->> Accurately Ripped (confidence 1) [5da87544] 11 ->> Accurately Ripped (confidence 1) [9ccd5911] 12 ->> Accurately Ripped (confidence 1) [db6099ac] 13 ->> Accurately Ripped (confidence 1) [06b239ca] 14 ->> Accurately Ripped (confidence 1) [ab1d0ed6] 15 ->> Accurately Ripped (confidence 1) [1f718b13] 16 ->> Accurately Ripped (confidence 1) [2d1ff556] 17 ->> Accurately Ripped (confidence 1) [8c28764c] 18 ->> Accurately Ripped (confidence 1) [f24dd974]

_______________________

All Tracks Accurately Ripped.


Трекер:  [ 18-Янв-2012 14:57 ]

  

Скачать .torrent

Размер .torrent файла 17 KB


Размер: 206 MB
Хэш (hash) релиза: da06ea4390e2345424f22f16600bce010e9dfad3

Торренты, похожие на Бумбараш скачать торрент

Форум Название Автор Размер S L Добавлен
Саундтреки к фильмам и мультфильмам (mp3) ·· (Soundtrack / Score) Бумбараш (Музыка и песни из телефильма "Бумбараш") (Владимир Дашкевич) - 1996 (1971), MP3, 320 kbps Galfimbul 10262124798 MB 0 0 1320770738

19:45

8-Ноя-11

bot

Топик был перенесен в форум Саундтреки к фильмам и мультфильмам (lossless)

Перенес uzi2009

Хотите добавить комментарий к записи скачать торрент Бумбараш

!Обратная связь