Скачать через торрент музыку Золотая коллекция - Песни нашего кино - 1998, APE бесплатно без регистрации torrent

Если у вас наблюдаются проблемы со скриншотами, переходом по ссылками, скачиванием торрентов - проблемы в блокировщике рекламы AdBlock. #хорошегоДня!


Статистика раздачи
Размер:  694 MB   |    Зарегистрирован:  5 лет 8 месяцев   |    .torrent скачан:  41 раз   |   
Раздают:  1  
   
Загрузка...
 
Автор Сообщение

uzi2009

avatar uzi2009


Золотая коллекция - Песни нашего кино



Жанр: Soundtrack
Год выпуска диска: 1998
Страна-производитель диска: Россия
Издатель (лейбл): Gold records
Номер по каталогу: Gold-225/226
Аудио кодек: APE (*.ape)
Тип рипа: image+.cue
Битрейт аудио: lossless
Продолжительность: CD1: 1:13:07 / CD2: 1:07:01
Наличие сканов в содержимом раздачи: да
01. 'Берегись автомобиля' - Вальс (3:41)
02. 'Карнавальная ночь' - Песенка о хорошем настроении (2:45)
03. 'Карнавальная ночь' - Песенка про пять минут (3:47)
04. 'Бриллиантовая рука' - Остров невезения (2:12)
05. 'Двенадцать стульев' - Танго 'Рио' (2:21)
06. 'Двенадцать стульев' - Песня Остапа (3:03)
07. 'Двенадцать стульев' - Жестокое танго (2:58)
08. 'О бедном гусаре замолвите слово' - Песенка про трубачей (2:32)
09. 'О бедном гусаре замолвите слово' - Сердца томная забота (1:31)
10. 'О бедном гусаре замолвите слово' - О бедном гусаре замолвите слово (1:27)
11. 'О бедном гусаре замолвите слово' - Друзьям (2:39)
12. 'О бедном гусаре замолвите слово' - Большая дорога (4:06)
13. 'О бедном гусаре замолвите слово' - Я пережил и многое, и многих (3:11)
14. 'Звезда пленительного счастья' - Не обещайте деве юной (3:24)
15. 'Соломенная шляпка' - Женюсь (3:23)
16. 'Соломенная шляпка' - Песенка о шляпке (2:51)
17. 'Белое солнце пустыни' - Ваше благородие, госпожа удача (1:48)
18. 'Вокзал для двоих' - Живем мы что-то без азарта (2:20)
19. 'Достояние республики' - Песня о шпаге (2:50)
20. 'Достояние республики' - Что будет, то и будет (3:24)
21. 'Жестокий романс' - Романс о романсе (2:35)
22. 'Жестокий романс' - Мохнатый шмель (2:51)
23. 'Жестокий романс' - Под лаской плюшевого пледа (2:39)
24. 'Жестокий романс' - Любовь - волшебная страна (2:55)
25. 'Жестокий романс' - А напоследок я скажу (2:38)
26. 'Предсказание' - Романс (3:18)
01. 'Ирония судьбы, или с легким паром' - Если у вас нету тети (1:48)
02. 'Ирония судьбы, или с легким паром' - На тихорецкую (2:02)
03. 'Ирония судьбы, или с легким паром' - Никого не будет в доме (2:21)
04. 'Ирония судьбы, или с легким паром' - Со мною вот что происходит (2:29)
05. 'Ирония судьбы, или с легким паром' - По улице моей (2:54)
06. 'Ирония судьбы, или с легким паром' - Мне нравится (1:39)
07. 'Ирония судьбы, или с легким паром' - У зеркала (1:42)
08. 'Ирония судьбы, или с легким паром' - Я спросил у ясеня (3:08)
09. 'Служебный роман' - Моей душе покоя нет (2:23)
10. 'Служебный роман' - У природы нет плохой погоды (3:01)
11. 'Служебный роман' - Нас в разбитых трамваях болтает (2:08)
12. 'Служебный роман' - Облетают последние маки (3:41)
13. 'Служебный роман' - Обрываются встречи влюбленных (1:49)
14. 'Гардемарины, вперед!' - Не вешать нос (2:48)
15. 'Гардемарины, вперед!' - Песня о дружбе (2:16)
16. 'Гардемарины, вперед!' - Дороги (1:35)
17. 'Гардемарины, вперед!' - Песня лоточницы (1:25)
18. 'Гардемарины, вперед!' - Песня байстрюка (4:49)
19. 'Гардемарины, вперед!' - Ланфрен-Ланфра (2:28)
20. 'Гардемарины, вперед!' - Песня о любви (5:14)
21. 'Гардемарины, вперед!' - Разлука (2:33)
22. 'Небеса обетованные' - Молитва (3:01)
23. 'Обыкновенное чудо' - Песня министра-администратора (2:54)
24. 'Обыкновенное чудо' - Пошел я к девушке (1:46)
25. 'Обыкновенное чудо' - Прощальная песня (5:07)

 
Exact Audio Copy V0.99 prebeta 3 from 28. July 2007

Отчёт EAC об извлечении, выполненном 19. февраля 2008, 11:29

Various / Золотая коллекция - Песни нашего кино CD1

Дисковод: HP DVD Writer 940d Adapter: 2 ID: 0

Режим чтения : ДостоверностьИспользование точного потока : ДаОтключение кэша аудио : ДаИспользование указателей C2 : Нет

Коррекция смещения при чтении : 6Способность читать области Lead-in и Lead-out : НетЗаполнение пропущенных сэмплов тишиной : ДаУдаление блоков с тишиной в начале и конце : НетПри вычислениях CRC использовались нулевые сэмплы : ДаИнтерфейс : Установленный внешний ASPI-интерфейс

Выходной формат : Внутренние WAV-операцииФормат сэмплов : 44.100 Гц; 16 бит; стерео

TOC извлечённого CD

Трек | Старт | Длительность | Начальный сектор | Конечный сектор --------------------------------------------------------------------- 1 | 0:00.00 | 3:40.70 | 0 | 16569 2 | 3:40.70 | 2:44.47 | 16570 | 28916 3 | 6:25.42 | 3:47.15 | 28917 | 45956 4 | 10:12.57 | 2:11.63 | 45957 | 55844 5 | 12:24.45 | 2:21.25 | 55845 | 66444 6 | 14:45.70 | 3:02.50 | 66445 | 80144 7 | 17:48.45 | 2:58.00 | 80145 | 93494 8 | 20:46.45 | 2:31.67 | 93495 | 104886 9 | 23:18.37 | 1:31.20 | 104887 | 111731 10 | 24:49.57 | 1:26.53 | 111732 | 118234 11 | 26:16.35 | 2:38.55 | 118235 | 130139 12 | 28:55.15 | 4:05.50 | 130140 | 148564 13 | 33:00.65 | 3:10.73 | 148565 | 162887 14 | 36:11.63 | 3:23.65 | 162888 | 178177 15 | 39:35.53 | 3:22.50 | 178178 | 193377 16 | 42:58.28 | 2:50.50 | 193378 | 206177 17 | 45:49.03 | 1:48.00 | 206178 | 214277 18 | 47:37.03 | 2:19.50 | 214278 | 224752 19 | 49:56.53 | 2:50.00 | 224753 | 237502 20 | 52:46.53 | 3:24.12 | 237503 | 252814 21 | 56:10.65 | 2:34.50 | 252815 | 264414 22 | 58:45.40 | 2:51.30 | 264415 | 277269 23 | 61:36.70 | 2:38.48 | 277270 | 289167 24 | 64:15.43 | 2:54.65 | 289168 | 302282 25 | 67:10.33 | 2:38.30 | 302283 | 314162 26 | 69:48.63 | 3:18.00 | 314163 | 329012

Характеристики диапазона извлечения и сообщения об ошибках

Выбранный диапазон

Имя файла F:\New Folder\Various - Золотая коллекция - Песни нашего кино CD1.wav

Пиковый уровень 98.1 % Качество диапазона 100.0 % CRC копии 445A910E Копирование... OK

Ошибок не произошло

Конец отчёта
 
AUDIOCHECKER v2.0 beta (build 457) - by Dester - opdester@freemail.hu~~~~~~~~~~~~~~~~~~~~~~~~~~~~~~~~~~-=== DO NOT EDIT THIS FILE! ===-

Path: ...\CD1

01 -=- ф 'Белое солнце пустыни' - Ваше благородие, госпожа удача.wav -=- CDDA (100%)02 -=- ф 'Берегись автомобиля' - Вальс.wav -=- CDDA (100%)03 -=- ф 'Бриллиантовая рука' - Остров невезения.wav -=- CDDA (100%)04 -=- ф 'Вокзал для двоих' - Живем мы что-то без азарта.wav -=- CDDA (100%)05 -=- ф 'Двенадцать стульев' - Жестокое танго.wav -=- CDDA (100%)06 -=- ф 'Двенадцать стульев' - Песня Остапа.wav -=- CDDA (100%)07 -=- ф 'Двенадцать стульев' - Танго 'Рио'.wav -=- CDDA (100%)08 -=- ф 'Достояние республики' - Песня о шпаге.wav -=- CDDA (100%)09 -=- ф 'Достояние республики' - Что будет, то и будет.wav -=- CDDA (100%)10 -=- ф 'Жестокий романс' - А напоследок я скажу.wav -=- CDDA (100%)11 -=- ф 'Жестокий романс' - Любовь - волшебная страна.wav -=- CDDA (100%)12 -=- ф 'Жестокий романс' - Мохнатый шмель.wav -=- CDDA (100%)13 -=- ф 'Жестокий романс' - Под лаской плюшевого пледа.wav -=- CDDA (100%)14 -=- ф 'Жестокий романс' - Романс о романсе.wav -=- CDDA (100%)15 -=- ф 'Звезда пленительного счастья' - Не обещайте деве юной.wav -=- CDDA (100%)16 -=- ф 'Карнавальная ночь' - Песенка о хорошем настроении.wav -=- CDDA (100%)17 -=- ф 'Карнавальная ночь' - Песенка про пять минут.wav -=- CDDA (100%)18 -=- ф 'О бедном гусаре замолвите слово' - Большая дорога.wav -=- CDDA (100%)19 -=- ф 'О бедном гусаре замолвите слово' - Друзьям.wav -=- CDDA (100%)20 -=- ф 'О бедном гусаре замолвите слово' - О бедном гусаре замолвите слово.wav -=- CDDA (100%)21 -=- ф 'О бедном гусаре замолвите слово' - Песенка про трубачей.wav -=- CDDA (100%)22 -=- ф 'О бедном гусаре замолвите слово' - Сердца томная забота.wav -=- CDDA (100%)23 -=- ф 'О бедном гусаре замолвите слово' - Я пережил и многое, и многих.wav -=- CDDA (100%)24 -=- ф 'Предсказание' - Романс.wav -=- CDDA (100%)25 -=- ф 'Соломенная шляпка' - Женюсь.wav -=- CDDA (100%)26 -=- ф 'Соломенная шляпка' - Песенка о шляпке.wav -=- CDDA (100%)

Summary 100,00% CDDA

257124084
 
Exact Audio Copy V0.99 prebeta 3 from 28. July 2007

Отчёт EAC об извлечении, выполненном 19. февраля 2008, 11:54

Various / Золотая коллекция - Песни нашего кино CD2

Дисковод: HP DVD Writer 940d Adapter: 2 ID: 0

Режим чтения : ДостоверностьИспользование точного потока : ДаОтключение кэша аудио : ДаИспользование указателей C2 : Нет

Коррекция смещения при чтении : 6Способность читать области Lead-in и Lead-out : НетЗаполнение пропущенных сэмплов тишиной : ДаУдаление блоков с тишиной в начале и конце : НетПри вычислениях CRC использовались нулевые сэмплы : ДаИнтерфейс : Установленный внешний ASPI-интерфейс

Выходной формат : Внутренние WAV-операцииФормат сэмплов : 44.100 Гц; 16 бит; стерео

TOC извлечённого CD

Трек | Старт | Длительность | Начальный сектор | Конечный сектор --------------------------------------------------------------------- 1 | 0:00.00 | 1:47.52 | 0 | 8076 2 | 1:47.52 | 2:02.36 | 8077 | 17262 3 | 3:50.13 | 2:20.43 | 17263 | 27805 4 | 6:10.56 | 2:29.18 | 27806 | 38998 5 | 8:39.74 | 2:53.55 | 38999 | 52028 6 | 11:33.54 | 1:39.10 | 52029 | 59463 7 | 13:12.64 | 1:42.30 | 59464 | 67143 8 | 14:55.19 | 3:08.27 | 67144 | 81270 9 | 18:03.46 | 2:23.20 | 81271 | 92015 10 | 20:26.66 | 3:00.55 | 92016 | 105570 11 | 23:27.46 | 2:07.50 | 105571 | 115145 12 | 25:35.21 | 3:40.45 | 115146 | 131690 13 | 29:15.66 | 1:49.00 | 131691 | 139865 14 | 31:04.66 | 2:48.13 | 139866 | 152478 15 | 33:53.04 | 2:16.28 | 152479 | 162706 16 | 36:09.32 | 1:35.05 | 162707 | 169836 17 | 37:44.37 | 1:25.03 | 169837 | 176214 18 | 39:09.40 | 4:48.60 | 176215 | 197874 19 | 43:58.25 | 2:27.60 | 197875 | 208959 20 | 46:26.10 | 5:13.54 | 208960 | 232488 21 | 51:39.64 | 2:32.57 | 232489 | 243945 22 | 54:12.46 | 3:01.25 | 243946 | 257545 23 | 57:13.71 | 2:54.00 | 257546 | 270595 24 | 60:07.71 | 1:46.00 | 270596 | 278545 25 | 61:53.71 | 5:06.50 | 278546 | 301545

Характеристики диапазона извлечения и сообщения об ошибках

Выбранный диапазон

Имя файла F:\New Folder\Various - Золотая коллекция - Песни нашего кино CD2.wav

Пиковый уровень 97.7 % Качество диапазона 99.9 % CRC копии F1544D53 Копирование... OK

Ошибок не произошло

Конец отчёта
 
AUDIOCHECKER v2.0 beta (build 457) - by Dester - opdester@freemail.hu~~~~~~~~~~~~~~~~~~~~~~~~~~~~~~~~~~-=== DO NOT EDIT THIS FILE! ===-

Path: ...\CD2

01 -=- 'Гардемарины, вперед!' - Дороги.wav -=- CDDA (99%)02 -=- 'Гардемарины, вперед!' - Ланфрен-Ланфра.wav -=- CDDA (100%)03 -=- 'Гардемарины, вперед!' - Не вешать нос.wav -=- CDDA (100%)04 -=- 'Гардемарины, вперед!' - Песня байстрюка.wav -=- CDDA (62%)05 -=- 'Гардемарины, вперед!' - Песня лоточницы.wav -=- CDDA (99%)06 -=- 'Гардемарины, вперед!' - Песня о дружбе.wav -=- CDDA (100%)07 -=- 'Гардемарины, вперед!' - Песня о любви.wav -=- CDDA (100%)08 -=- 'Гардемарины, вперед!' - Разлука.wav -=- CDDA (100%)09 -=- 'Ирония судьбы, или с легким паром' - Если у вас нету тети.wav -=- MPEG (90%)10 -=- 'Ирония судьбы, или с легким паром' - Мне нравится.wav -=- CDDA (99%)11 -=- 'Ирония судьбы, или с легким паром' - На тихорецкую.wav -=- CDDA (100%)12 -=- 'Ирония судьбы, или с легким паром' - Никого не будет в доме.wav -=- CDDA (100%)13 -=- 'Ирония судьбы, или с легким паром' - По улице моей.wav -=- CDDA (100%)14 -=- 'Ирония судьбы, или с легким паром' - Со мною вот что происходит.wav -=- CDDA (100%)15 -=- 'Ирония судьбы, или с легким паром' - У зеркала.wav -=- CDDA (99%)16 -=- 'Ирония судьбы, или с легким паром' - Я спросил у ясеня.wav -=- CDDA (100%)17 -=- 'Небеса обетованные' - Молитва.wav -=- CDDA (100%)18 -=- 'Обыкновенное чудо' - Песня министра-администратора.wav -=- CDDA (100%)19 -=- 'Обыкновенное чудо' - Пошел я к девушке.wav -=- CDDA (100%)20 -=- 'Обыкновенное чудо' - Прощальная песня.wav -=- CDDA (100%)21 -=- 'Служебный роман' - Моей душе покоя нет.wav -=- CDDA (100%)22 -=- 'Служебный роман' - Нас в разбитых трамваях болтает.wav -=- CDDA (100%)23 -=- 'Служебный роман' - Облетают последние маки.wav -=- CDDA (100%)24 -=- 'Служебный роман' - Обрываются встречи влюбленных.wav -=- CDDA (100%)25 -=- 'Служебный роман' - У природы нет плохой погоды.wav -=- CDDA (100%)

Summary 94,72% CDDA

267959396


Трекер:  [ 16-Янв-2012 21:50 ]

  

Скачать .torrent

Размер .torrent файла 15 KB


Размер: 694 MB
Хэш (hash) релиза: fdd72e0b19cf2fd93b6d4f3ea7e2fdfd4ef5acb0

bot

Топик был перенесен в форум Саундтреки к фильмам и мультфильмам (lossless)

Перенес uzi2009

Хотите добавить комментарий к записи скачать торрент Золотая коллекция - Песни нашего кино - 1998, APE

!Обратная связь