Скачать через торрент музыку Музыка российского кино - Симфонический оркестр Русская филармония - 1997, FLAC бесплатно без регистрации torrent

Если у вас наблюдаются проблемы со скриншотами, переходом по ссылками, скачиванием торрентов - проблемы в блокировщике рекламы AdBlock. #хорошегоДня!


Статистика раздачи
Размер:  329 MB   |    Зарегистрирован:  5 лет 8 месяцев   |    .torrent скачан:  34 раза   |   
Раздают:  1  
   
Загрузка...
 
Автор Сообщение

uzi2009

avatar uzi2009


Музыка российского кино - Симфонический оркестр ''Русская филармония''



Жанр: Score
Год выпуска диска: 1997
Производитель диска: PolyGram Russia. Сделано в Германии.
Аудио кодек: FLAC
Тип рипа: tracks+.cue
Битрейт аудио: lossless
Продолжительность: 63:16

Трэклист:
01. И. Дунаевский - Увертюра (из к/ф "Дети капитана Гранта")
02. С. Прокофьев - Мертвое поле (из к/ф "Александр Невский")
03. Д. Шостакович - Бал во дворце (из к/ф "Гамлет")
04. Д. Шостакович - Романс (из к/ф "Овод")
05. С. Прокофьев - Романс (из к/ф "Поручик Киже")
06. С. Прокофьев - Тройка (из к/ф "Поручик Киже")
07. Б. Чайковский - Вступление (из к/ф "Женитьба Бальзаминова")
08. Т. Хренников - Адажио (из к/ф "Гусарская баллада")
09. В. Гаврилин - Тарантелла (из к/ф "Анюта")
10. В. Гаврилин - Большой вальс (из к/ф "Анюта")
11. Д. Шостакович - Вальс (из к/ф "Пирогов")
12. Г. Свиридов - Вальс (из к/ф "Метель")
13. Г. Свиридов - Романс (из к/ф "Метель")
14. Г. Свиридов - Частушка (из к/ф "Время, вперед!")
15. Г. Свиридов - Увертюра (из к/ф "Время, вперед!")
Очень приличное качество как исполнения, так и звукорежиссёрской работы. На диске собрана как известная, так и не очень
музыка российского кино. Оркестра уже нет, канала ТВ-6 - тоже нет в том виде в котором он был в 1997-ом году, а эта прекрасная работа осталась - для нас с вами.
Запись произведена в студии 5 Государственного Дома Радиовещания и звукозаписи.Звукорежиссура и монтаж -Татьяна Винницкая.
Мастеринг - Олег Иванов.Запись выполнена по 20-битовой технологии.От себя скажу - я сам не раз работал в 5-ой студии ГДРЗ вместе с Татьяной Винницкой и Олегом Ивановым. В 1997-ом году этот творческий дует считался среди профессиональных музыкантов и дирижеров - одним из лучших в стране. Они уже тогда очень творчески ,используя уникальную по тем временам аппаратуру, относились к такому сложному и высокоинтеллектуальному процессу как мастеринг материала для выпуска компакт-диска.
Exact Audio Copy V0.99 prebeta 5 from 4. May 2009

Отчёт EAC об извлечении, выполненном 20. ноября 2009, 16:41

Simphonic Orchestra TV-6 Moscow п.у.А.Ведерникова / Симфонический оркестр ''Русская филармония''. Музыка российского кино.

Дисковод: HL-DT-STDVDRAM GSA-T20N Adapter: 2 ID: 0

Режим чтения : Достоверность
Использование точного потока : Да
Отключение кэша аудио : Да
Использование указателей C2 : Нет

Коррекция смещения при чтении : 667
Способность читать области Lead-in и Lead-out : Нет
Заполнение пропущенных сэмплов тишиной : Да
Удаление блоков с тишиной в начале и конце : Нет
При вычислениях CRC использовались нулевые сэмплы : Да
Интерфейс : Установленный внешний ASPI-интерфейс
Обработка зазоров : Добавлено к предыдущему треку

Выходной формат : Пользовательский кодировщик
Выбранный битрейт : 1024 kBit/s
Качество : Высокий
Добавление ID3-тэга : Нет
Утилита сжатия : C:\Program Files\Exact Audio Copy\FLAC\FLAC.EXE
Дополнительные параметры : -6 -V -T "ARTIST=%a" -T "TITLE=%t" -T "ALBUM=%g" -T "DATE=%y" -T "TRACKNUMBER=%n" -T "GENRE=%m" -T "COMMENT=%e" %s -o %d

TOC извлечённого CD

Трек | Старт | Длительность | Начальный сектор | Конечный сектор
---------------------------------------------------------------------
1 | 0:00.00 | 4:22.60 | 0 | 19709
2 | 4:22.60 | 5:58.15 | 19710 | 46574
3 | 10:21.00 | 3:22.00 | 46575 | 61724
4 | 13:43.00 | 6:24.50 | 61725 | 90574
5 | 20:07.50 | 4:23.58 | 90575 | 110357
6 | 24:31.33 | 2:53.67 | 110358 | 123399
7 | 27:25.25 | 2:27.73 | 123400 | 134497
8 | 29:53.23 | 5:41.60 | 134498 | 160132
9 | 35:35.08 | 2:18.12 | 160133 | 170494
10 | 37:53.20 | 5:04.45 | 170495 | 193339
11 | 42:57.65 | 5:03.68 | 193340 | 216132
12 | 48:01.58 | 4:30.67 | 216133 | 236449
13 | 52:32.50 | 6:09.00 | 236450 | 264124
14 | 58:41.50 | 1:07.15 | 264125 | 269164
15 | 59:48.65 | 3:27.23 | 269165 | 284712

Трек 1

Имя файла D:\Image\WavelabTemp\01 - И. Дунаевский - Увертюра из к,ф 'Дети капитана Гранта' - Simphonic Orchestra TV-6 Moscow п.у.А.Ведерникова.wav

Длина предзазора 0:00:02.00

Пиковый уровень 100.0 %
Качество трека 100.0 %
CRC теста A6D59396
CRC копии A6D59396
Трек не обнаружен в базе AccurateRip
Копирование... OK

Трек 2

Имя файла D:\Image\WavelabTemp\02 - С. Прокофьев - Мертвое поле из к,ф 'Александр Невский' - Simphonic Orchestra TV-6 Moscow п.у.А.Ведерникова.wav

Пиковый уровень 98.0 %
Качество трека 100.0 %
CRC теста 5796E95F
CRC копии 5796E95F
Трек не обнаружен в базе AccurateRip
Копирование... OK

Трек 3

Имя файла D:\Image\WavelabTemp\03 - Д. Шостакович - Бал во дворце из к,ф 'Гамлет' - Simphonic Orchestra TV-6 Moscow п.у.А.Ведерникова.wav

Пиковый уровень 97.6 %
Качество трека 100.0 %
CRC теста BD24A414
CRC копии BD24A414
Трек не обнаружен в базе AccurateRip
Копирование... OK

Трек 4

Имя файла D:\Image\WavelabTemp\04 - Д. Шостакович - Романс из к,ф 'Овод' - Simphonic Orchestra TV-6 Moscow п.у.А.Ведерникова.wav

Пиковый уровень 96.6 %
Качество трека 100.0 %
CRC теста B28FEADE
CRC копии B28FEADE
Трек не обнаружен в базе AccurateRip
Копирование... OK

Трек 5

Имя файла D:\Image\WavelabTemp\05 - С. Прокофьев - Романс из к,ф 'Поручик Киже' - Simphonic Orchestra TV-6 Moscow п.у.А.Ведерникова.wav

Пиковый уровень 98.8 %
Качество трека 100.0 %
CRC теста F7E188A1
CRC копии F7E188A1
Трек не обнаружен в базе AccurateRip
Копирование... OK

Трек 6

Имя файла D:\Image\WavelabTemp\06 - С. Прокофьев - Тройка из к,ф 'Поручик Киже' - Simphonic Orchestra TV-6 Moscow п.у.А.Ведерникова.wav

Пиковый уровень 96.3 %
Качество трека 100.0 %
CRC теста D6EC9141
CRC копии D6EC9141
Трек не обнаружен в базе AccurateRip
Копирование... OK

Трек 7

Имя файла D:\Image\WavelabTemp\07 - Б. Чайковский - Вступление из к,ф 'Женитьба Бальзаминова' - Simphonic Orchestra TV-6 Moscow п.у.А.Ведерникова.wav

Пиковый уровень 98.6 %
Качество трека 100.0 %
CRC теста CEEEEA1B
CRC копии CEEEEA1B
Трек не обнаружен в базе AccurateRip
Копирование... OK

Трек 8

Имя файла D:\Image\WavelabTemp\08 - Т. Хренников - Адажио из к,ф 'Гусарская баллада' - Simphonic Orchestra TV-6 Moscow п.у.А.Ведерникова.wav

Пиковый уровень 97.7 %
Качество трека 100.0 %
CRC теста 1ECC5460
CRC копии 1ECC5460
Трек не обнаружен в базе AccurateRip
Копирование... OK

Трек 9

Имя файла D:\Image\WavelabTemp\09 - В. Гаврилин - Тарантелла из к,ф 'Анюта' - Simphonic Orchestra TV-6 Moscow п.у.А.Ведерникова.wav

Пиковый уровень 100.0 %
Качество трека 99.9 %
CRC теста D527FA68
CRC копии D527FA68
Трек не обнаружен в базе AccurateRip
Копирование... OK

Трек 10

Имя файла D:\Image\WavelabTemp\10 - В. Гаврилин - Большой вальс из к,ф 'Анюта' - Simphonic Orchestra TV-6 Moscow п.у.А.Ведерникова.wav

Пиковый уровень 97.3 %
Качество трека 100.0 %
CRC теста 53BAF6F3
CRC копии 53BAF6F3
Трек не обнаружен в базе AccurateRip
Копирование... OK

Трек 11

Имя файла D:\Image\WavelabTemp\11 - Д. Шостакович - Вальс из к,ф 'Пирогов' - Simphonic Orchestra TV-6 Moscow п.у.А.Ведерникова.wav

Пиковый уровень 96.9 %
Качество трека 100.0 %
CRC теста 376144BB
CRC копии 376144BB
Трек не обнаружен в базе AccurateRip
Копирование... OK

Трек 12

Имя файла D:\Image\WavelabTemp\12 - Г. Свиридов - Вальс из к,ф 'Метель' - Simphonic Orchestra TV-6 Moscow п.у.А.Ведерникова.wav

Пиковый уровень 98.1 %
Качество трека 100.0 %
CRC теста 84918340
CRC копии 84918340
Трек не обнаружен в базе AccurateRip
Копирование... OK

Трек 13

Имя файла D:\Image\WavelabTemp\13 - Г. Свиридов - Романс из к,ф 'Метель' - Simphonic Orchestra TV-6 Moscow п.у.А.Ведерникова.wav

Пиковый уровень 99.0 %
Качество трека 100.0 %
CRC теста 76FA18FA
CRC копии 76FA18FA
Трек не обнаружен в базе AccurateRip
Копирование... OK

Трек 14

Имя файла D:\Image\WavelabTemp\14 - Г. Свиридов - Частушка из к,ф 'Время, вперед!' - Simphonic Orchestra TV-6 Moscow п.у.А.Ведерникова.wav

Пиковый уровень 97.7 %
Качество трека 100.0 %
CRC теста F8E9CF33
CRC копии F8E9CF33
Трек не обнаружен в базе AccurateRip
Копирование... OK

Трек 15

Имя файла D:\Image\WavelabTemp\15 - Г. Свиридов - Увертюра из к,ф 'Время, вперед!' - Simphonic Orchestra TV-6 Moscow п.у.А.Ведерникова.wav

Пиковый уровень 98.0 %
Качество трека 100.0 %
CRC теста 0883514C
CRC копии 0883514C
Трек не обнаружен в базе AccurateRip
Копирование... OK

Ни одного трека нет в базе AccurateRip

Ошибок не произошло

Конец отчёта


Трекер:  [ 18-Янв-2012 15:26 ]

  

Скачать .torrent

Размер .torrent файла 6 KB


Размер: 329 MB
Хэш (hash) релиза: 2e41891a9c4e40383949b36ecbb5b4c3c9c13801

bot

Топик был перенесен в форум Саундтреки к фильмам и мультфильмам (lossless)

Перенес uzi2009

Хотите добавить комментарий к записи скачать торрент Музыка российского кино - Симфонический оркестр Русская филармония - 1997, FLAC

!Обратная связь