Скачать через торрент музыку Сборник кинохитов "Мне нравится..." - 2005, FLAC бесплатно без регистрации torrent

Если у вас наблюдаются проблемы со скриншотами, переходом по ссылками, скачиванием торрентов - проблемы в блокировщике рекламы AdBlock. #хорошегоДня!


Статистика раздачи
Размер:  397 MB   |    Зарегистрирован:  5 лет 10 месяцев   |    .torrent скачан:  36 раз   |   
Раздают:  1  
   
Загрузка...
 
Автор Сообщение

uzi2009

avatar uzi2009


Сборник кинохитов "Мне нравится..."



Жанр: Soundtrack
Страна-производитель диска: Украина
Год издания диска: 2005
Издатель (лейбл): ООО "ВИККОН-ПЛЮС"
Страна: Украина
Аудио кодек: FLAC (*.flac)
Тип рипа: image+.cue
Битрейт аудио: lossless
Продолжительность: 79:46
Источник: лицензионный диск
Наличие сканов в содержимом раздачи: да

Треклист:
01. Павел Луспекаев - Госпожа удача (1:45)
02. Юрий Никулин - Если б я был султан (2:38)
03. Никита Михалков - А цыган идет (2:50)
04. Андрей Миронов - Остров невезения (2:55)
05. Алла Пугачёва - Мне нравится (1:34)
06. Ю.Никулин, Г.Вицин - Постой, паровоз (2:32)
07. Аида Ведищева - Песенка о медведях (2:55)
08. Иосиф Кобзон - Мгновения (2:49)
09. Аида Ведищева - Помоги мне (3:32)
10. Михаил Боярский - Ланфрен-Ланфра (2:22)
11. Ленинградский конц. орк. п, у Бахтен - Вальс из к/ф Берегись автомобиля (3:54)
12. Михаил Боярский - Песенка Мушкетёров (3:08)
13. Валентина Пономарёва - Гори, гори моя звезда (3:07)
14. Андрей Миронов - Танго любви (3:00)
15. Олег Анофриев - Есть только миг (3:40)
16. Нина Бродская - Теряют люди друг друга (3:04)
17. Марк Бернес - Шаланды полные кефали (3:03)
18. Юрий Никулин - Песня про зайцев (3:04)
19. Сергей Никитин - Со мною вот что происходит... (2:29)
20. Эстр. орк. п, у Людвиковского - Дорога (1:59)
21. Сергей Куравлёв - Разговор со счастьем (2:40)
22. Андрей Миронов - Белеет парус одинокий (3:04)
23. Орк. госкино СССР п, у Э.Хачатуряна - Темы из кинофильма Осенний марафон (5:43)
24. Сергей Никитин - Я спросил у ясеня (3:08)
25. Алла Пугачёва - На Тихорецкую состав отправится (1:27)
26. Иосиф Кобзон - Где-то далеко (2:47)
27. Марк Бернес - Тучи над городом встали (2:00)
28. Валентина Пономарёва - А напоследок я скажу (2:36)
 
Exact Audio Copy V0.99 prebeta 5 from 4. May 2009

EAC extraction logfile from 25. October 2010, 16:52

Raznie artisti / Sbornik kinohitov

Used drive : HL-DT-STDVDRAM GH22NS40 Adapter: 1 ID: 1

Read mode : SecureUtilize accurate stream : YesDefeat audio cache : YesMake use of C2 pointers : No

Read offset correction : 667Overread into Lead-In and Lead-Out : NoFill up missing offset samples with silence : YesDelete leading and trailing silent blocks : NoNull samples used in CRC calculations : YesUsed interface : Native Win32 interface for Win NT & 2000

Used output format : Internal WAV RoutinesSample format : 44.100 Hz; 16 Bit; Stereo

TOC of the extracted CD

Track | Start | Length | Start sector | End sector --------------------------------------------------------- 1 | 0:00.00 | 1:44.56 | 0 | 7855 2 | 1:44.56 | 2:37.59 | 7856 | 19689 3 | 4:22.40 | 2:50.00 | 19690 | 32439 4 | 7:12.40 | 2:55.00 | 32440 | 45564 5 | 10:07.40 | 1:33.41 | 45565 | 52580 6 | 11:41.06 | 2:32.23 | 52581 | 64003 7 | 14:13.29 | 2:54.43 | 64004 | 77096 8 | 17:07.72 | 2:48.62 | 77097 | 89758 9 | 19:56.59 | 3:32.07 | 89759 | 105665 10 | 23:28.66 | 2:22.20 | 105666 | 116335 11 | 25:51.11 | 3:54.36 | 116336 | 133921 12 | 29:45.47 | 3:08.37 | 133922 | 148058 13 | 32:54.09 | 3:07.10 | 148059 | 162093 14 | 36:01.19 | 3:00.10 | 162094 | 175603 15 | 39:01.29 | 3:39.55 | 175604 | 192083 16 | 42:41.09 | 3:03.45 | 192084 | 205853 17 | 45:44.54 | 3:03.21 | 205854 | 219599 18 | 48:48.00 | 3:03.47 | 219600 | 233371 19 | 51:51.47 | 2:29.18 | 233372 | 244564 20 | 54:20.65 | 1:59.35 | 244565 | 253524 21 | 56:20.25 | 2:39.62 | 253525 | 265511 22 | 59:00.12 | 3:03.45 | 265512 | 279281 23 | 62:03.57 | 5:42.55 | 279282 | 304986 24 | 67:46.37 | 3:08.27 | 304987 | 319113 25 | 70:54.64 | 1:27.08 | 319114 | 325646 26 | 72:21.72 | 2:46.43 | 325647 | 338139 27 | 75:08.40 | 2:00.12 | 338140 | 347151 28 | 77:08.52 | 2:35.69 | 347152 | 358845

Range status and errors

Selected range

Filename C:\Program Files\Exact Audio Copy\Flac\Raznie artisti - Sbornik kinohitov.wav

Peak level 100.0 % Range quality 100.0 % Test CRC AFE3BA1B Copy CRC AFE3BA1B Copy OK

No errors occurred

End of status report
 
AUDIOCHECKER v2.0 beta (build 457) - by Dester - opdester@freemail.hu~~~~~~~~~~~~~~~~~~~~~~~~~~~~~~~~~~

Started at: понедельник, 25. 10. 2010. - 17:20.331 file found

1 -===- C:\Program Files\Exact Audio Copy\Flac\Raznie artisti - Sbornik kinohitov.wav Conclusion: this track is CDDA with probability 100%

Finished at: понедельник, 25. 10. 2010. - 17:28.08 (operation time: 0:07.35)


Трекер:  [ 18-Янв-2012 15:35 ]

  

Скачать .torrent

Размер .torrent файла 16 KB


Размер: 397 MB
Хэш (hash) релиза: 6d319e9dafff734da9557dc98878f23e651a2ccd

bot

Топик был перенесен в форум Саундтреки к фильмам и мультфильмам (lossless)

Перенес uzi2009

Хотите добавить комментарий к записи скачать торрент Сборник кинохитов "Мне нравится..." - 2005, FLAC

!Обратная связь