Скачать через торрент музыку Всадник по имени смерть бесплатно без регистрации torrent

Если у вас наблюдаются проблемы со скриншотами, переходом по ссылками, скачиванием торрентов - проблемы в блокировщике рекламы AdBlock. #хорошегоДня!


Статистика раздачи
Размер:  270 MB   |    Зарегистрирован:  5 лет 10 месяцев   |    .torrent скачан:  26 раз   |   
Раздают:  1  
   
Загрузка...
 
Автор Сообщение

uzi2009

avatar uzi2009


Всадник по имени смерть



Жанр: Score / Soundtrack
Композитор: Анатолий Кролл
Год выпуска диска / фильма: 2004
Страна-производитель диска: Россия
Издатель (лейбл): Megaлайнер Рекордз
Аудио кодек: FLAC (*.flac)
Тип рипа: image+.cue
Битрейт аудио: lossless
Продолжительность: 24:06
Наличие сканов в содержимом раздачи: нет

Треклист:
01. М. Линк - Шансонетка (1:49)
02. Ж. Оффенбах - Канкан (3:02)
03. А. Кролл - Основная тема (4:04)
04. А. Кролл - Марево (5:34)
05. О. Гречко - Романс 'Черт с тобой' (2:30)
06. О. Гречко - Романс 'Почему так безумно люблю?' (3:20)
07. Дж. Верди - Фрагмент оперы 'Бал-маскарад' (1:30)
08. А. Кролл - Тревога (2:18)
 
Exact Audio Copy V0.99 prebeta 5 from 4. May 2009

EAC extraction logfile from 24. December 2010, 15:37

Various Artists / Всадник по имени Смерть. Музыка к кинофильму

Used drive : PIONEER DVD-RW DVR-215D Adapter: 2 ID: 0

Read mode : SecureUtilize accurate stream : YesDefeat audio cache : YesMake use of C2 pointers : No

Read offset correction : 48Overread into Lead-In and Lead-Out : NoFill up missing offset samples with silence : YesDelete leading and trailing silent blocks : NoNull samples used in CRC calculations : YesUsed interface : Native Win32 interface for Win NT & 2000

Used output format : User Defined EncoderSelected bitrate : 128 kBit/sQuality : HighAdd ID3 tag : NoCommand line compressor : C:\Program Files\Exact Audio Copy\Flac\flac.exeAdditional command line options : -8 -V %s

TOC of the extracted CD

Track | Start | Length | Start sector | End sector --------------------------------------------------------- 1 | 0:00.00 | 1:49.20 | 0 | 8194 2 | 1:49.20 | 3:01.64 | 8195 | 21833 3 | 4:51.09 | 4:03.61 | 21834 | 40119 4 | 8:54.70 | 5:34.13 | 40120 | 65182 5 | 14:29.08 | 2:29.68 | 65183 | 76425 6 | 16:59.01 | 3:19.65 | 76426 | 91415 7 | 20:18.66 | 1:29.38 | 91416 | 98128 8 | 21:48.29 | 2:18.02 | 98129 | 108480 9 | 26:38.31 | 17:37.71 | 119881 | 199226

Range status and errors

Selected range

Filename C:\New Rock\Music\Various Artists - Всадник по имени Смерть. Музыка к кинофильму.wav

Peak level 99.8 % Range quality 99.9 % Test CRC DAA8B452 Copy CRC DAA8B452 Copy OK

No errors occurred

AccurateRip summary

Track 1 not present in databaseTrack 2 not present in databaseTrack 3 not present in databaseTrack 4 not present in databaseTrack 5 not present in databaseTrack 6 not present in databaseTrack 7 not present in databaseTrack 8 not present in database

None of the tracks are present in the AccurateRip database

End of status report
 
AUDIOCHECKER v2.0 beta (build 457) - by Dester - opdester@freemail.hu~~~~~~~~~~~~~~~~~~~~~~~~~~~~~~~~~~-=== DO NOT EDIT THIS FILE! ===-

Path: ...\Всадник по имени смерть [2004]

1 -=- (01) [М. Линк] Шансонетка.flac -=- CDDA (100%)2 -=- (02) [Ж. Оффенбах] Канкан.flac -=- CDDA (100%)3 -=- (03) [А. Кролл] Основная тема.flac -=- CDDA (99%)4 -=- (04) [А. Кролл] Марево.flac -=- CDDA (99%)5 -=- (05) [О. Гречко] Романс 'Черт с тобой'.flac -=- CDDA (100%)6 -=- (06) [О. Гречко] Романс 'Почему так безумно люблю-'.flac -=- CDDA (100%)7 -=- (07) [Дж. Верди] Фрагмент оперы 'Бал-маскарад'.flac -=- CDDA (99%)8 -=- (08) [А. Кролл] Тревога.flac -=- CDDA (100%)

Summary 99,63% CDDA

74816452
* О фильме
* Аннотация к фильму
* Титры, Фильмографии и Фотоальбомы Творческого коллектива
* Видеоролик фильма

Анатолий Кролл - Музыка
Российский Государственный симфонический оркестр кинематографии под управлением Сергея Скрипки

SKU 101000016764

Киноконцерн "Мосфильм"
Русский сезон


1. Шансонетка - М.Линк
2. Канкан - Ж.Оффенбах, ар. А Кролла
3. Основная тема - А.Кролл
4. Марево - А.Кролл
5. Романс "Черт с тобой..." - П. Вейнберг исполняет О.Гречко
6. Романс " Почему так безумно люблю?" - Б. Гурович исполняет О.Гречко
7. Фрагмент оперы "Бал-маскарад" - Дж.Верди оркестр и хор ГАБТ РФ, дирежер П.Сорокин
8. Тревога - А.Кролл


Трекер:  [ 16-Янв-2012 23:07 ]

  

Скачать .torrent

Размер .torrent файла 13 KB


Размер: 270 MB
Хэш (hash) релиза: 429cb57d2bc3280a22c2f4d8dd5b0f503d98fdf9

Торренты, похожие на Всадник по имени смерть скачать торрент

Форум Название Автор Размер S L Добавлен
Саундтреки к фильмам и мультфильмам (mp3) ·· (Score / Soundtrack) Всадник по имени смерть (Анатолий Кролл & VA) - 2004, MP3 (tracks), 320 kbps Galfimbul 5826823256 MB 0 0 1321366848

17:20

15-Ноя-11

bot

Топик был перенесен в форум Саундтреки к фильмам и мультфильмам (lossless)

Перенес uzi2009

Хотите добавить комментарий к записи скачать торрент Всадник по имени смерть

!Обратная связь