Скачать через торрент музыку Садко братьев Запашных бесплатно без регистрации torrent

Если у вас наблюдаются проблемы со скриншотами, переходом по ссылками, скачиванием торрентов - проблемы в блокировщике рекламы AdBlock. #хорошегоДня!


Статистика раздачи
Размер:  438 MB   |    Зарегистрирован:  5 лет 10 месяцев   |    .torrent скачан:  31 раз   |   
Раздают:  1  
   
Загрузка...
 
Автор Сообщение

uzi2009

avatar uzi2009


Садко братьев Запашных



Жанр: Score / Soundtrack
Исполнтель: группа ПриZрак
Год выпуска диска: 2010
Производитель диска: Россия
Аудио кодек: FLAC (*.flac)
Тип рипа: image+.cue
Битрейт аудио: lossless
Продолжительность: 1:02:07
Наличие сканов в содержимом раздачи: нет

Треклист:
01 - Песня Садко
02 - Великий Новгород *
03 - Колокола *
04 - Дрессированные собачки *
05 - Ловля рыбы Злата Перо *
06 - Постройка флота
07 - Отплытие *
08 - Бой с хищниками *
09 - Попурри *
10 - Египет *
11 - Африка *
12 - Индия *
13 - Птица счастья
14 - Шторм
15 - Танец утопленников *
16 - Выбор невесты
17 - Эпилог

* - инструментальные композиции
 
Exact Audio Copy V0.99 prebeta 5 from 4. May 2009

EAC extraction logfile from 2. February 2011, 5:15

ПриZрак / Садко (original soundtrack)

Used drive : Optiarc DVD RW AD-7561S Adapter: 2 ID: 0

Read mode : SecureUtilize accurate stream : YesDefeat audio cache : YesMake use of C2 pointers : No

Read offset correction : 6Overread into Lead-In and Lead-Out : NoFill up missing offset samples with silence : YesDelete leading and trailing silent blocks : NoNull samples used in CRC calculations : YesUsed interface : Native Win32 interface for Win NT & 2000

Used output format : User Defined EncoderSelected bitrate : 128 kBit/sQuality : HighAdd ID3 tag : NoCommand line compressor : C:\Program Files\Exact Audio Copy\Flac\flac.exeAdditional command line options : -8 -V %s

TOC of the extracted CD

Track | Start | Length | Start sector | End sector --------------------------------------------------------- 1 | 0:00.00 | 3:46.51 | 0 | 17000 2 | 3:46.51 | 3:49.32 | 17001 | 34207 3 | 7:36.08 | 3:20.74 | 34208 | 49281 4 | 10:57.07 | 2:53.52 | 49282 | 62308 5 | 13:50.59 | 3:22.68 | 62309 | 77526 6 | 17:13.52 | 3:12.37 | 77527 | 91963 7 | 20:26.14 | 4:09.26 | 91964 | 110664 8 | 24:35.40 | 6:41.45 | 110665 | 140784 9 | 31:17.10 | 3:54.02 | 140785 | 158336 10 | 35:11.12 | 4:52.59 | 158337 | 180295 11 | 40:03.71 | 2:27.55 | 180296 | 191375 12 | 42:31.51 | 3:34.00 | 191376 | 207425 13 | 46:05.51 | 3:31.70 | 207426 | 223320 14 | 49:37.46 | 4:06.14 | 223321 | 241784 15 | 53:43.60 | 1:50.03 | 241785 | 250037 16 | 55:33.63 | 3:28.00 | 250038 | 265637 17 | 59:01.63 | 3:05.53 | 265638 | 279565

Range status and errors

Selected range

Filename D:\music\OST\2010 - Садко\ПриZрак - Садко (original soundtrack).wav

Peak level 100.0 % Range quality 100.0 % Test CRC 7F0C3AD2 Copy CRC 7F0C3AD2 Copy OK

No errors occurred

End of status report
Доп. информация: Данный диск является сборником музыки из шоу "Садко братьев Запашных", шел вместе с новогодним подарком "Камелота 2", обложек не имеет.

Трекер:  [ 18-Янв-2012 15:44 ]

  

Скачать .torrent

Размер .torrent файла 17 KB


Размер: 438 MB
Хэш (hash) релиза: 96343b1f08ce827cecb35ad0e937dbcfab983fd2

bot

Топик был перенесен в форум Саундтреки к фильмам и мультфильмам (lossless)

Перенес uzi2009

Хотите добавить комментарий к записи скачать торрент Садко братьев Запашных

!Обратная связь