Скачать через торрент музыку День рождения Буржуя 2 бесплатно без регистрации torrent

Если у вас наблюдаются проблемы со скриншотами, переходом по ссылками, скачиванием торрентов - проблемы в блокировщике рекламы AdBlock. #хорошегоДня!


Статистика раздачи
Размер:  320 MB   |    Зарегистрирован:  5 лет 7 месяцев   |    .torrent скачан:  28 раз   |   
Раздают:  1  
   
Загрузка...
 
Автор Сообщение

Galfimbul

avatar Galfimbul


День рождения Буржуя 2 (телесериал)

Жанр: Score
Композитор: Дмитрий Атовмян
Год выпуска диска: 2001
Страна-производитель диска: Россия
Издатель (лейбл): CDLand
Номер по каталогу: CDLR 0010 CD
Аудио кодек: APE (*.ape)
Тип рипа: image+.cue
Битрейт аудио: lossless
Продолжительность: 64:39
Источник: собственный рип
Наличие сканов в содержимом раздачи: нет

Треклист:
1. Титры
2. Пролог
3. После песни
4. Рассказ Толстого
5. Артур-шоу
6. Черные маски
7. Вера - Стефания
8. Явление Буржуя
9. Фотографии
10. Черные маски - погоня
11. Варьете
12. Экспертиза
13. Вера - Толстый
14. Джип - мотоцикл
15. Толстый - колдовство
16. Артур в шкафу
17. На кладбище
18. Moto All
19. Буржуй - тюрьма
20. Эксперт и Маска
21. Предательство
22. Шоу 4/4
23. Бомжи
24. Пожар
25. «Осенний романс»
26. «Танцевалеску»
27. Сон Бориса
28. Исцеление Кости
29. Замок Кудлы
30. Буржуй - Ольга
31. Черные маски - 2
32. Поединок Буржуя и Кудлы: финал
33. Главная тема
34. Финальные титры
35. «День рождения»
 
Exact Audio Copy V0.99 prebeta 5 from 4. May 2009

Отчёт EAC об извлечении, выполненном 3. марта 2011, 11:56

Various / ДР буржуя 2

Дисковод: TSSTcorpDVD+-RW TS-H653F Adapter: 3 ID: 0

Режим чтения : ДостоверностьИспользование точного потока : ДаОтключение кэша аудио : ДаИспользование указателей C2 : Нет

Коррекция смещения при чтении : 6Способность читать области Lead-in и Lead-out : НетЗаполнение пропущенных сэмплов тишиной : ДаУдаление блоков с тишиной в начале и конце : НетПри вычислениях CRC использовались нулевые сэмплы : ДаИнтерфейс : Встроенный Win32-интерфейс для Win NT/2000

Выходной формат : Внутренние WAV-операцииФормат сэмплов : 44.100 Гц; 16 бит; стерео

TOC извлечённого CD

Трек | Старт | Длительность | Начальный сектор | Конечный сектор --------------------------------------------------------------------- 1 | 0:00.00 | 1:33.55 | 0 | 7029 2 | 1:33.55 | 2:08.69 | 7030 | 16698 3 | 3:42.49 | 1:04.04 | 16699 | 21502 4 | 4:46.53 | 1:40.73 | 21503 | 29075 5 | 6:27.51 | 1:40.72 | 29076 | 36647 6 | 8:08.48 | 0:34.20 | 36648 | 39217 7 | 8:42.68 | 1:21.25 | 39218 | 45317 8 | 10:04.18 | 1:37.61 | 45318 | 52653 9 | 11:42.04 | 2:13.45 | 52654 | 62673 10 | 13:55.49 | 0:51.36 | 62674 | 66534 11 | 14:47.10 | 1:47.70 | 66535 | 74629 12 | 16:35.05 | 0:42.08 | 74630 | 77787 13 | 17:17.13 | 1:30.63 | 77788 | 84600 14 | 18:48.01 | 1:05.02 | 84601 | 89477 15 | 19:53.03 | 0:45.46 | 89478 | 92898 16 | 20:38.49 | 0:48.51 | 92899 | 96549 17 | 21:27.25 | 1:04.36 | 96550 | 101385 18 | 22:31.61 | 1:15.16 | 101386 | 107026 19 | 23:47.02 | 2:12.00 | 107027 | 116926 20 | 25:59.02 | 1:44.73 | 116927 | 124799 21 | 27:44.00 | 1:04.37 | 124800 | 129636 22 | 28:48.37 | 2:18.57 | 129637 | 140043 23 | 31:07.19 | 1:14.56 | 140044 | 145649 24 | 32:22.00 | 5:01.60 | 145650 | 168284 25 | 37:23.60 | 2:48.57 | 168285 | 180941 26 | 40:12.42 | 1:21.40 | 180942 | 187056 27 | 41:34.07 | 1:20.18 | 187057 | 193074 28 | 42:54.25 | 1:56.20 | 193075 | 201794 29 | 44:50.45 | 1:46.73 | 201795 | 209817 30 | 46:37.43 | 1:07.27 | 209818 | 214869 31 | 47:44.70 | 1:23.45 | 214870 | 221139 32 | 49:08.40 | 3:53.27 | 221140 | 238641 33 | 53:01.67 | 4:06.22 | 238642 | 257113 34 | 57:08.14 | 2:30.42 | 257114 | 268405 35 | 59:38.56 | 5:00.34 | 268406 | 290939

Характеристики диапазона извлечения и сообщения об ошибках

Выбранный диапазон

Имя файла C:\Users\Администратор\Music\Various - ДР буржуя 2.wav

Пиковый уровень 99.9 % Качество диапазона 99.9 % CRC теста 2FF2979C CRC копии 2FF2979C Копирование... OK

Ошибок не произошло

AccurateRip: сводка

Трек 1 нет в базе данныхТрек 2 нет в базе данныхТрек 3 нет в базе данныхТрек 4 нет в базе данныхТрек 5 нет в базе данныхТрек 6 нет в базе данныхТрек 7 нет в базе данныхТрек 8 нет в базе данныхТрек 9 нет в базе данныхТрек 10 нет в базе данныхТрек 11 нет в базе данныхТрек 12 нет в базе данныхТрек 13 нет в базе данныхТрек 14 нет в базе данныхТрек 15 нет в базе данныхТрек 16 нет в базе данныхТрек 17 нет в базе данныхТрек 18 нет в базе данныхТрек 19 нет в базе данныхТрек 20 нет в базе данныхТрек 21 нет в базе данныхТрек 22 нет в базе данныхТрек 23 нет в базе данныхТрек 24 нет в базе данныхТрек 25 нет в базе данныхТрек 26 нет в базе данныхТрек 27 нет в базе данныхТрек 28 нет в базе данныхТрек 29 нет в базе данныхТрек 30 нет в базе данныхТрек 31 нет в базе данныхТрек 32 нет в базе данныхТрек 33 нет в базе данныхТрек 34 нет в базе данныхТрек 35 нет в базе данных

Ни одного трека нет в базе AccurateRip

Конец отчёта
 
AUDIOCHECKER v2.0 beta (build 457) - by Dester - opdester@freemail.hu~~~~~~~~~~~~~~~~~~~~~~~~~~~~~~~~~~-=== DO NOT EDIT THIS FILE! ===-

Path: ...\OST День рождения буржуя 2

1 -=- Various - ДР буржуя 2.wav -=- CDDA (100%)

137820196


Трекер:  [ 09-Фев-2012 18:50 ]

  

Скачать .torrent

Размер .torrent файла 13 KB


Размер: 320 MB
Хэш (hash) релиза: 3351f56551bc10b9823d934118d11a00f86d1261

Торренты, похожие на День рождения Буржуя 2 скачать торрент

Форум Название Автор Размер S L Добавлен
Саундтреки к фильмам и мультфильмам (mp3) ·· (Score) День рождения Буржуя 2 [телесериал] (Дмитрий Атовмян) - 2001, MP3, 320 kbps Galfimbul 156782337150 MB 0 0 1321366844

17:20

15-Ноя-11

Еще никто не оставлял запись к записи скачать торрент День рождения Буржуя 2 . Будь первым!

!Обратная связь