Скачать через торрент музыку Алексей Рыбников - Музыка для детей - 2006, FLAC бесплатно без регистрации torrent

Если у вас наблюдаются проблемы со скриншотами, переходом по ссылками, скачиванием торрентов - проблемы в блокировщике рекламы AdBlock. #хорошегоДня!


Статистика раздачи
Размер:  283 MB   |    Зарегистрирован:  5 лет 7 месяцев   |    .torrent скачан:  44 раза   |   
Раздают:  1  
   
Загрузка...
 
Автор Сообщение

Galfimbul

avatar Galfimbul


Алексей Рыбников - Музыка для детей

Жанр: Score
Год выпуска диска: 2006
Страна-производитель диска: Россия
Издатель (лейбл): Bomba
Номер по каталогу: AR-0017

Аудио кодек: FLAC (*.flac)
Тип рипа: tracks+.cue
Битрейт аудио: lossless
Продолжительность: 45:48

Источник: диск из моей коллекции
Наличие сканов в содержимом раздачи: да

Треклист:
01. Колыбельная (Усатый нянь)
02. Тема огнетушителя (Усатый нянь)
03. Азбука (Приключения Буратино)
04. Ожидание (Карантин)
05. Тема звезд (Про Красную Шапочку)
06. Признание (Карантин)
07. Тема Красной шапочки (Про Красную Шапочку)
08. Тема театра Карабаса (Приключения Буратино)
09. Драка кота и лисы (Приключения Буратино)
10. Кеша и дети (Усатый нянь)
11. Утро в джунглях (Паучок Ананси)
12. Тема капитана (Новые приключения капитана Врунгеля)
13. Весна (Усатый нянь)
14. Тема охотника (Про Красную Шапочку)
15. Сны (Карантин)
16. Руки вверх (Руки вверх!)
17. Финал (Усатый нянь)
18. Веселая тема (Руки вверх!)
19. Погоня (Приключения Буратино)
20. Первая телеграмма (Новые приключения капитана Врунгеля)
21. Поход (Руки вверх!)
22. Морская тема (Новые приключения капитана Врунгеля)
23. Прогулка (Карантин)
24. Усатый нянь
 
Exact Audio Copy V1.0 beta 1 from 15. November 2010

EAC extraction logfile from 5. May 2011, 1:11

Алексей Рыбников / Музыка для детей

Used drive : ASUS DRW-24B1LT Adapter: 5 ID: 1

Read mode : SecureUtilize accurate stream : YesDefeat audio cache : YesMake use of C2 pointers : No

Read offset correction : 6Overread into Lead-In and Lead-Out : NoFill up missing offset samples with silence : YesDelete leading and trailing silent blocks : NoNull samples used in CRC calculations : YesUsed interface : Native Win32 interface for Win NT & 2000Gap handling : Appended to previous track

Used output format : User Defined EncoderSelected bitrate : 768 kBit/sQuality : HighAdd ID3 tag : NoCommand line compressor : C:\Program Files\Exact Audio Copy\Flac\flac.exeAdditional command line options : -8 -V -T "ARTIST=%a" -T "TITLE=%t" -T "ALBUM=%g" -T "DATE=%y" -T "TRACKNUMBER=%n" -T "TOTALTRACKS=%x" -T "GENRE=%m" -T "ALBUMARTIST=%v" -T "ALBUM ARTIST=%v" -T "COMMENT=EAC Secure Mode, Test & Copy, AccurateRip, FLAC -8" %s

TOC of the extracted CD

Track | Start | Length | Start sector | End sector --------------------------------------------------------- 1 | 0:00.00 | 1:41.18 | 0 | 7592 2 | 1:41.18 | 1:43.15 | 7593 | 15332 3 | 3:24.33 | 0:38.46 | 15333 | 18228 4 | 4:03.04 | 1:29.57 | 18229 | 24960 5 | 5:32.61 | 1:35.55 | 24961 | 32140 6 | 7:08.41 | 2:46.37 | 32141 | 44627 7 | 9:55.03 | 1:28.07 | 44628 | 51234 8 | 11:23.10 | 2:16.45 | 51235 | 61479 9 | 13:39.55 | 1:19.36 | 61480 | 67440 10 | 14:59.16 | 3:32.00 | 67441 | 83340 11 | 18:31.16 | 1:03.42 | 83341 | 88107 12 | 19:34.58 | 2:34.50 | 88108 | 99707 13 | 22:09.33 | 2:42.66 | 99708 | 111923 14 | 24:52.24 | 1:02.29 | 111924 | 116602 15 | 25:54.53 | 3:51.60 | 116603 | 133987 16 | 29:46.38 | 1:11.44 | 133988 | 139356 17 | 30:58.07 | 2:18.44 | 139357 | 149750 18 | 33:16.51 | 1:11.41 | 149751 | 155116 19 | 34:28.17 | 2:57.42 | 155117 | 168433 20 | 37:25.59 | 1:00.09 | 168434 | 172942 21 | 38:25.68 | 2:21.00 | 172943 | 183517 22 | 40:46.68 | 1:51.31 | 183518 | 191873 23 | 42:38.24 | 2:31.41 | 191874 | 203239 24 | 45:09.65 | 0:49.17 | 203240 | 206931

Track 1

Filename F:\audio\01 - Колыбельная (Усатый нянь).wav

Pre-gap length 0:00:02.00

Peak level 76.1 % Extraction speed 2.7 X Track quality 100.0 % Test CRC 2F2970AB Copy CRC 2F2970AB Track not present in AccurateRip database Copy OK

Track 2

Filename F:\audio\02 - Тема огнетушителя (Усатый нянь).wav

Peak level 95.1 % Extraction speed 2.9 X Track quality 100.0 % Test CRC C027BE38 Copy CRC C027BE38 Track not present in AccurateRip database Copy OK

Track 3

Filename F:\audio\03 - Азбука (Приключения Буратино).wav

Peak level 85.4 % Extraction speed 2.0 X Track quality 100.0 % Test CRC 07EF7D93 Copy CRC 07EF7D93 Track not present in AccurateRip database Copy OK

Track 4

Filename F:\audio\04 - Ожидание (Карантин).wav

Peak level 97.7 % Extraction speed 3.0 X Track quality 100.0 % Test CRC 7457DFC2 Copy CRC 7457DFC2 Track not present in AccurateRip database Copy OK

Track 5

Filename F:\audio\05 - Тема звезд (Про Красную Шапочку).wav

Peak level 87.1 % Extraction speed 3.2 X Track quality 100.0 % Test CRC 8A35FF71 Copy CRC 8A35FF71 Track not present in AccurateRip database Copy OK

Track 6

Filename F:\audio\06 - Признание (Карантин).wav

Peak level 89.7 % Extraction speed 3.8 X Track quality 100.0 % Test CRC 416A8CDC Copy CRC 416A8CDC Track not present in AccurateRip database Copy OK

Track 7

Filename F:\audio\07 - Тема Красной Шапочки (Про Красную Шапочку).wav

Peak level 90.6 % Extraction speed 3.3 X Track quality 100.0 % Test CRC FBAB65D0 Copy CRC FBAB65D0 Track not present in AccurateRip database Copy OK

Track 8

Filename F:\audio\08 - Тема театра Карабаса (Приключения Буратино).wav

Peak level 83.4 % Extraction speed 3.9 X Track quality 100.0 % Test CRC EA6FAF32 Copy CRC EA6FAF32 Track not present in AccurateRip database Copy OK

Track 9

Filename F:\audio\09 - Драка Кота и Лисы (Приключения Буратино).wav

Peak level 85.8 % Extraction speed 3.4 X Track quality 100.0 % Test CRC C9E403D0 Copy CRC C9E403D0 Track not present in AccurateRip database Copy OK

Track 10

Filename F:\audio\10 - Кеша и дети (Усатый нянь).wav

Peak level 99.6 % Extraction speed 4.5 X Track quality 100.0 % Test CRC 60B0C66A Copy CRC 60B0C66A Track not present in AccurateRip database Copy OK

Track 11

Filename F:\audio\11 - Утро в джунглях (Паучок Ананси).wav

Peak level 89.8 % Extraction speed 3.3 X Track quality 100.0 % Test CRC AD351BA1 Copy CRC AD351BA1 Track not present in AccurateRip database Copy OK

Track 12

Filename F:\audio\12 - Тема капитана (Новые приключения капитана Врунгеля).wav

Peak level 93.6 % Extraction speed 4.5 X Track quality 100.0 % Test CRC E6F983F8 Copy CRC E6F983F8 Track not present in AccurateRip database Copy OK

Track 13

Filename F:\audio\13 - Весна (Усатый нянь).wav

Peak level 89.8 % Extraction speed 4.7 X Track quality 100.0 % Test CRC BEE29D6D Copy CRC BEE29D6D Track not present in AccurateRip database Copy OK

Track 14

Filename F:\audio\14 - Тема охотника (Про Красную Шапочку).wav

Peak level 89.5 % Extraction speed 3.6 X Track quality 100.0 % Test CRC B27B0F01 Copy CRC B27B0F01 Track not present in AccurateRip database Copy OK

Track 15

Filename F:\audio\15 - Сны (Карантин).wav

Peak level 99.0 % Extraction speed 5.2 X Track quality 100.0 % Test CRC 337E4AF1 Copy CRC 337E4AF1 Track not present in AccurateRip database Copy OK

Track 16

Filename F:\audio\16 - Руки вверх (Руки вверх!).wav

Peak level 95.8 % Extraction speed 4.0 X Track quality 100.0 % Test CRC BCD72712 Copy CRC BCD72712 Track not present in AccurateRip database Copy OK

Track 17

Filename F:\audio\17 - Финал (Усатый нянь).wav

Peak level 99.0 % Extraction speed 5.0 X Track quality 100.0 % Test CRC F9B1DACA Copy CRC F9B1DACA Track not present in AccurateRip database Copy OK

Track 18

Filename F:\audio\18 - Веселая тема (Руки вверх!).wav

Peak level 95.7 % Extraction speed 4.1 X Track quality 100.0 % Test CRC BFF8ECBC Copy CRC BFF8ECBC Track not present in AccurateRip database Copy OK

Track 19

Filename F:\audio\19 - Погоня (Приключения Буратино).wav

Peak level 97.2 % Extraction speed 5.4 X Track quality 100.0 % Test CRC 92A33850 Copy CRC 92A33850 Track not present in AccurateRip database Copy OK

Track 20

Filename F:\audio\20 - Первая телеграмма (Новые приключения капитана Врунгеля).wav

Peak level 83.5 % Extraction speed 2.3 X Track quality 99.8 % Test CRC 1F9C3C74 Copy CRC 1F9C3C74 Track not present in AccurateRip database Copy OK

Track 21

Filename F:\audio\21 - Поход (Руки вверх!).wav

Peak level 91.7 % Extraction speed 5.3 X Track quality 100.0 % Test CRC 42AED535 Copy CRC 42AED535 Track not present in AccurateRip database Copy OK

Track 22

Filename F:\audio\22 - Морская тема (Новые приключения капитана Врунгеля).wav

Peak level 89.4 % Extraction speed 5.1 X Track quality 100.0 % Test CRC 7AC7CFE0 Copy CRC 7AC7CFE0 Track not present in AccurateRip database Copy OK

Track 23

Filename F:\audio\23 - Прогулка (Карантин).wav

Peak level 91.3 % Extraction speed 5.6 X Track quality 100.0 % Test CRC 053AEB29 Copy CRC 053AEB29 Track not present in AccurateRip database Copy OK

Track 24

Filename F:\audio\24 - Усатый нянь.wav

Peak level 94.6 % Extraction speed 3.9 X Track quality 100.0 % Test CRC 40169DE8 Copy CRC 40169DE8 Track not present in AccurateRip database Copy OK

None of the tracks are present in the AccurateRip database

No errors occurred

End of status report

==== Log checksum 4C55246624B5B5892A39CE10F57189112A7E4908C8B49302BB553B0730F7FA73 ====
 
REM GENRE SoundtrackREM DATE 2006REM DISCID 380AC718REM COMMENT "ExactAudioCopy v1.0b1"PERFORMER "Алексей Рыбников"TITLE "Музыка для детей"FILE "01 - Колыбельная (Усатый нянь).wav" WAVE TRACK 01 AUDIO TITLE "Колыбельная (Усатый нянь)" PERFORMER "Алексей Рыбников" FLAGS DCP INDEX 01 00:00:00FILE "02 - Тема огнетушителя (Усатый нянь).wav" WAVE TRACK 02 AUDIO TITLE "Тема огнетушителя (Усатый нянь)" PERFORMER "Алексей Рыбников" FLAGS DCP INDEX 01 00:00:00FILE "03 - Азбука (Приключения Буратино).wav" WAVE TRACK 03 AUDIO TITLE "Азбука (Приключения Буратино)" PERFORMER "Алексей Рыбников" FLAGS DCP INDEX 01 00:00:00FILE "04 - Ожидание (Карантин).wav" WAVE TRACK 04 AUDIO TITLE "Ожидание (Карантин)" PERFORMER "Алексей Рыбников" FLAGS DCP INDEX 01 00:00:00FILE "05 - Тема звезд (Про Красную Шапочку).wav" WAVE TRACK 05 AUDIO TITLE "Тема звезд (Про Красную Шапочку)" PERFORMER "Алексей Рыбников" FLAGS DCP INDEX 01 00:00:00FILE "06 - Признание (Карантин).wav" WAVE TRACK 06 AUDIO TITLE "Признание (Карантин)" PERFORMER "Алексей Рыбников" FLAGS DCP INDEX 01 00:00:00FILE "07 - Тема Красной Шапочки (Про Красную Шапочку).wav" WAVE TRACK 07 AUDIO TITLE "Тема Красной Шапочки (Про Красную Шапочку)" PERFORMER "Алексей Рыбников" FLAGS DCP INDEX 01 00:00:00FILE "08 - Тема театра Карабаса (Приключения Буратино).wav" WAVE TRACK 08 AUDIO TITLE "Тема театра Карабаса (Приключения Буратино)" PERFORMER "Алексей Рыбников" FLAGS DCP INDEX 01 00:00:00FILE "09 - Драка Кота и Лисы (Приключения Буратино).wav" WAVE TRACK 09 AUDIO TITLE "Драка Кота и Лисы (Приключения Буратино)" PERFORMER "Алексей Рыбников" FLAGS DCP INDEX 01 00:00:00FILE "10 - Кеша и дети (Усатый нянь).wav" WAVE TRACK 10 AUDIO TITLE "Кеша и дети (Усатый нянь)" PERFORMER "Алексей Рыбников" FLAGS DCP INDEX 01 00:00:00FILE "11 - Утро в джунглях (Паучок Ананси).wav" WAVE TRACK 11 AUDIO TITLE "Утро в джунглях (Паучок Ананси)" PERFORMER "Алексей Рыбников" FLAGS DCP INDEX 01 00:00:00FILE "12 - Тема капитана (Новые приключения капитана Врунгеля).wav" WAVE TRACK 12 AUDIO TITLE "Тема капитана (Новые приключения капитана Врунгеля)" PERFORMER "Алексей Рыбников" FLAGS DCP INDEX 01 00:00:00FILE "13 - Весна (Усатый нянь).wav" WAVE TRACK 13 AUDIO TITLE "Весна (Усатый нянь)" PERFORMER "Алексей Рыбников" FLAGS DCP INDEX 01 00:00:00FILE "14 - Тема охотника (Про Красную Шапочку).wav" WAVE TRACK 14 AUDIO TITLE "Тема охотника (Про Красную Шапочку)" PERFORMER "Алексей Рыбников" FLAGS DCP INDEX 01 00:00:00FILE "15 - Сны (Карантин).wav" WAVE TRACK 15 AUDIO TITLE "Сны (Карантин)" PERFORMER "Алексей Рыбников" FLAGS DCP INDEX 01 00:00:00FILE "16 - Руки вверх (Руки вверх!).wav" WAVE TRACK 16 AUDIO TITLE "Руки вверх (Руки вверх!)" PERFORMER "Алексей Рыбников" FLAGS DCP INDEX 01 00:00:00FILE "17 - Финал (Усатый нянь).wav" WAVE TRACK 17 AUDIO TITLE "Финал (Усатый нянь)" PERFORMER "Алексей Рыбников" FLAGS DCP INDEX 01 00:00:00FILE "18 - Веселая тема (Руки вверх!).wav" WAVE TRACK 18 AUDIO TITLE "Веселая тема (Руки вверх!)" PERFORMER "Алексей Рыбников" FLAGS DCP INDEX 01 00:00:00FILE "19 - Погоня (Приключения Буратино).wav" WAVE TRACK 19 AUDIO TITLE "Погоня (Приключения Буратино)" PERFORMER "Алексей Рыбников" FLAGS DCP INDEX 01 00:00:00FILE "20 - Первая телеграмма (Новые приключения капитана Врунгеля).wav" WAVE TRACK 20 AUDIO TITLE "Первая телеграмма (Новые приключения капитана Врунгеля)" PERFORMER "Алексей Рыбников" FLAGS DCP INDEX 01 00:00:00FILE "21 - Поход (Руки вверх!).wav" WAVE TRACK 21 AUDIO TITLE "Поход (Руки вверх!)" PERFORMER "Алексей Рыбников" FLAGS DCP INDEX 01 00:00:00FILE "22 - Морская тема (Новые приключения капитана Врунгеля).wav" WAVE TRACK 22 AUDIO TITLE "Морская тема (Новые приключения капитана Врунгеля)" PERFORMER "Алексей Рыбников" FLAGS DCP INDEX 01 00:00:00FILE "23 - Прогулка (Карантин).wav" WAVE TRACK 23 AUDIO TITLE "Прогулка (Карантин)" PERFORMER "Алексей Рыбников" FLAGS DCP INDEX 01 00:00:00FILE "24 - Усатый нянь.wav" WAVE TRACK 24 AUDIO TITLE "Усатый нянь" PERFORMER "Алексей Рыбников" FLAGS DCP INDEX 01 00:00:00


Трекер:  [ 09-Фев-2012 18:50 ]

  

Скачать .torrent

Размер .torrent файла 14 KB


Размер: 283 MB
Хэш (hash) релиза: ef1f513d18d62cc06be0e890bb9d387a6df7728d

Еще никто не оставлял запись к записи скачать торрент Алексей Рыбников - Музыка для детей - 2006, FLAC . Будь первым!

!Обратная связь