Скачать через торрент музыку Сказка странствий. Музыка из кинофильмов бесплатно без регистрации torrent

Если у вас наблюдаются проблемы со скриншотами, переходом по ссылками, скачиванием торрентов - проблемы в блокировщике рекламы AdBlock. #хорошегоДня!


Статистика раздачи
Размер:  227 MB   |    Зарегистрирован:  5 лет 8 месяцев   |    .torrent скачан:  30 раз   |   
Раздают:  1  
   
Загрузка...
 
Автор Сообщение

uzi2009

avatar uzi2009


Сказка странствий. Музыка из кинофильмов (Альфред Шнитке)



Жанр: Score
Композитор: Альфред Шнитке
Год выпуска диска: 2004
Страна-производитель диска: Россия
Издатель (лейбл): АРК - Систем Рекордз
Номер по каталогу: ARK CD 031
Аудиокодек: FLAC (*.flac)
Тип рипа: tracks+.cue
Битрейт аудио: lossless
Продолжительность: 56:21
Наличие сканов в содержимом раздачи: да

Треклист:
01. Под рождество (Из к/ф 'Сказка странствий', 1983) (3:43)
02. Сказка странствий (Из к/ф 'Сказка странствий', 1983) (2:10)
03. Вальс-раздолье (Из к/ф 'Сказка странствий', 1983) (3:54)
04. По радуге (Из к/ф 'Приключения травки', 1976) (1:46)
05. Мелодия в старинном стиле (Из к/ф 'Похождения зубного врача', 1965) (2:03)
06. Ночь (Из к/ф 'Приключения травки', 1976) (2:09)
07. Чарльстон (Из к/ф 'Похождения зубного врача', 1965) (1:30)
08. Элегия (Из к/ф 'Осень', 1974) (1:35)
09. Полёт (Из к/ф 'Сказка странствий', 1983) (5:18)
10. Освобождение (Из к/ф 'Сказка странствий', 1983) (1:27)
11. Любовное настроение (Из к/ф 'Экипаж', 1979) (2:20)
12. Над городом (Из к/ф 'Приключения травки', 1976) (1:33)
13. Восхождение (Из к/ф 'Восхождение', 1976) (2:06)
14. Дети и шахматы (Из к/ф 'Клоуны и дети', 1976) (1:38)
15. Объяснение в любви (Из к/ф 'Сказка странствий', 1983) (2:09)
16. Танго (Из к/ф 'Агония', 1975) (4:04)
17. Осень (Из к/ф 'Осень', 1974) (2:55)
18. Зимняя дорога (Из к/ф 'Музыка для воображаемой пьесы', 1985) (2:14)
19. Мелодия (Из к/ф 'Повесть о неизвестном актере', 1976) (2:15)
20. Галоп (Из к/ф 'Приключения травки', 1976) (1:31)
21. Лес сказок (Из к/ф 'Приключения травки', 1976) (1:57)
22. Экипаж (Из к/ф 'Экипаж', 1979) (3:28)
23. Эпилог (Из к/ф 'Сказка странствий', 1983) (2:36)
 
Exact Audio Copy V0.99 prebeta 4 from 23. January 2008

EAC extraction logfile from 27. June 2011, 20:28

Альфред Шнитке / Сказка странствий

Used drive : Optiarc DVD RW AD-7241S Adapter: 1 ID: 1

Read mode : SecureUtilize accurate stream : YesDefeat audio cache : YesMake use of C2 pointers : No

Read offset correction : 48Overread into Lead-In and Lead-Out : NoFill up missing offset samples with silence : YesDelete leading and trailing silent blocks : NoNull samples used in CRC calculations : YesUsed interface : Installed external ASPI interfaceGap handling : Appended to previous track

Used output format : User Defined EncoderSelected bitrate : 1024 kBit/sQuality : HighAdd ID3 tag : NoCommand line compressor : C:\Program Files\Exact Audio Copy\Flac\flac.exeAdditional command line options : -V -8 -T "Genre=%m" -T "Artist=%a" -T "Title=%t" -T "Album=%g" -T "Date=%y" -T "Tracknumber=%n" -T "Comment=EAC FLAC -8" %s

TOC of the extracted CD

Track | Start | Length | Start sector | End sector --------------------------------------------------------- 1 | 0:00.00 | 3:42.61 | 0 | 16710 2 | 3:42.61 | 2:09.70 | 16711 | 26455 3 | 5:52.56 | 3:53.55 | 26456 | 43985 4 | 9:46.36 | 1:46.08 | 43986 | 51943 5 | 11:32.44 | 2:03.06 | 51944 | 61174 6 | 13:35.50 | 2:08.59 | 61175 | 70833 7 | 15:44.34 | 1:30.28 | 70834 | 77611 8 | 17:14.62 | 1:34.59 | 77612 | 84720 9 | 18:49.46 | 5:17.41 | 84721 | 108536 10 | 24:07.12 | 1:27.24 | 108537 | 115085 11 | 25:34.36 | 2:19.66 | 115086 | 125576 12 | 27:54.27 | 1:33.06 | 125577 | 132557 13 | 29:27.33 | 2:06.36 | 132558 | 142043 14 | 31:33.69 | 1:38.10 | 142044 | 149403 15 | 33:12.04 | 2:09.03 | 149404 | 159081 16 | 35:21.07 | 4:03.70 | 159082 | 177376 17 | 39:25.02 | 2:54.47 | 177377 | 190473 18 | 42:19.49 | 2:13.74 | 190474 | 200522 19 | 44:33.48 | 2:15.01 | 200523 | 210648 20 | 46:48.49 | 1:31.07 | 210649 | 217480 21 | 48:19.56 | 1:56.47 | 217481 | 226227 22 | 50:16.28 | 3:27.68 | 226228 | 241820 23 | 53:44.21 | 2:36.27 | 241821 | 253547 24 | 58:52.48 | 2:02.11 | 264948 | 274108

Track 1

Filename F:\torrent\Skazka Stranstviy_Schnitke\score\01. Альфред Шнитке – Под рождество ((Из к,ф 'Сказка странствий', 1983).wav

Pre-gap length 0:00:02.00

Peak level 19.9 % Track quality 99.9 % Test CRC D9E3C2C5 Copy CRC D9E3C2C5 Track not present in AccurateRip database Copy OK

Track 2

Filename F:\torrent\Skazka Stranstviy_Schnitke\score\02. Альфред Шнитке – Сказка странствий (Из к,ф 'Сказка странствий', 1983).wav

Peak level 20.0 % Track quality 100.0 % Test CRC 507BAACD Copy CRC 507BAACD Track not present in AccurateRip database Copy OK

Track 3

Filename F:\torrent\Skazka Stranstviy_Schnitke\score\03. Альфред Шнитке – Вальс-раздолье (Из к,ф 'Сказка странствий', 1983).wav

Peak level 23.3 % Track quality 100.0 % Test CRC D4355CE2 Copy CRC D4355CE2 Track not present in AccurateRip database Copy OK

Track 4

Filename F:\torrent\Skazka Stranstviy_Schnitke\score\04. Альфред Шнитке – По радуге (Из к,ф 'Приключения Травки', 1976).wav

Peak level 16.0 % Track quality 100.0 % Test CRC 73DB13EC Copy CRC 73DB13EC Track not present in AccurateRip database Copy OK

Track 5

Filename F:\torrent\Skazka Stranstviy_Schnitke\score\05. Альфред Шнитке – Мелодия в старинном стиле (Из к,ф 'Похождения зубного врача', 1965).wav

Peak level 21.6 % Track quality 100.0 % Test CRC AFF2FEDC Copy CRC AFF2FEDC Track not present in AccurateRip database Copy OK

Track 6

Filename F:\torrent\Skazka Stranstviy_Schnitke\score\06. Альфред Шнитке – Ночь (Из к,ф 'Приключения Травки', 1976).wav

Peak level 19.7 % Track quality 100.0 % Test CRC 7F1E723D Copy CRC 7F1E723D Track not present in AccurateRip database Copy OK

Track 7

Filename F:\torrent\Skazka Stranstviy_Schnitke\score\07. Альфред Шнитке – Чарльстон (Из к,ф 'Похождения зубного врача', 1965).wav

Peak level 19.5 % Track quality 100.0 % Test CRC 3A618B64 Copy CRC 3A618B64 Track not present in AccurateRip database Copy OK

Track 8

Filename F:\torrent\Skazka Stranstviy_Schnitke\score\08. Альфред Шнитке – Элегия (Из к,ф 'Осень', 1974).wav

Peak level 19.0 % Track quality 100.0 % Test CRC 698CA9CA Copy CRC 698CA9CA Track not present in AccurateRip database Copy OK

Track 9

Filename F:\torrent\Skazka Stranstviy_Schnitke\score\09. Альфред Шнитке – Полёт (Из к,ф 'Сказка странствий', 1983).wav

Peak level 20.3 % Track quality 100.0 % Test CRC 3360CDCB Copy CRC 3360CDCB Track not present in AccurateRip database Copy OK

Track 10

Filename F:\torrent\Skazka Stranstviy_Schnitke\score\10. Альфред Шнитке – Освобождение (Из к,ф 'Сказка странствий', 1983).wav

Peak level 22.4 % Track quality 99.8 % Test CRC AB2E0DC8 Copy CRC AB2E0DC8 Track not present in AccurateRip database Copy OK

Track 11

Filename F:\torrent\Skazka Stranstviy_Schnitke\score\11. Альфред Шнитке – Любовное настроение (Из к,ф 'Экипаж', 1979).wav

Peak level 26.9 % Track quality 100.0 % Test CRC 8EDCD666 Copy CRC 8EDCD666 Track not present in AccurateRip database Copy OK

Track 12

Filename F:\torrent\Skazka Stranstviy_Schnitke\score\12. Альфред Шнитке – Над городом (Из к,ф 'Приключения Травки', 1976).wav

Peak level 20.0 % Track quality 100.0 % Test CRC A94A895B Copy CRC A94A895B Track not present in AccurateRip database Copy OK

Track 13

Filename F:\torrent\Skazka Stranstviy_Schnitke\score\13. Альфред Шнитке – Восхождение (Из к,ф 'Восхождение', 1976).wav

Peak level 19.6 % Track quality 99.9 % Test CRC EA404592 Copy CRC EA404592 Track not present in AccurateRip database Copy OK

Track 14

Filename F:\torrent\Skazka Stranstviy_Schnitke\score\14. Альфред Шнитке – Дети и шахматы (Из к,ф 'Клоуны и дети', 1976).wav

Peak level 19.2 % Track quality 100.0 % Test CRC 48F31EB4 Copy CRC 48F31EB4 Track not present in AccurateRip database Copy OK

Track 15

Filename F:\torrent\Skazka Stranstviy_Schnitke\score\15. Альфред Шнитке – Объяснение в любви (Из к,ф 'Сказка странствий', 1983).wav

Peak level 19.6 % Track quality 100.0 % Test CRC BFB0899F Copy CRC BFB0899F Track not present in AccurateRip database Copy OK

Track 16

Filename F:\torrent\Skazka Stranstviy_Schnitke\score\16. Альфред Шнитке – Танго (Из к,ф 'Агония', 1975).wav

Peak level 20.3 % Track quality 100.0 % Test CRC C74FACF2 Copy CRC C74FACF2 Track not present in AccurateRip database Copy OK

Track 17

Filename F:\torrent\Skazka Stranstviy_Schnitke\score\17. Альфред Шнитке – Осень (Из к,ф 'Осень', 1974).wav

Peak level 24.5 % Track quality 100.0 % Test CRC ABF0EF7C Copy CRC ABF0EF7C Track not present in AccurateRip database Copy OK

Track 18

Filename F:\torrent\Skazka Stranstviy_Schnitke\score\18. Альфред Шнитке – Зимняя дорога (Из к,ф 'Музыка для воображаемой пьесы', 1985).wav

Peak level 22.7 % Track quality 100.0 % Test CRC 557F98BD Copy CRC 557F98BD Track not present in AccurateRip database Copy OK

Track 19

Filename F:\torrent\Skazka Stranstviy_Schnitke\score\19. Альфред Шнитке – Мелодия (Из к,ф 'Повесть о неизвестном актере', 1976).wav

Peak level 20.0 % Track quality 100.0 % Test CRC F83E220D Copy CRC F83E220D Track not present in AccurateRip database Copy OK

Track 20

Filename F:\torrent\Skazka Stranstviy_Schnitke\score\20. Альфред Шнитке – Галоп (Из к,ф 'Приключения Травки', 1976).wav

Peak level 23.2 % Track quality 100.0 % Test CRC 1E42F776 Copy CRC 1E42F776 Track not present in AccurateRip database Copy OK

Track 21

Filename F:\torrent\Skazka Stranstviy_Schnitke\score\21. Альфред Шнитке – Лес сказок (Из к,ф 'Приключения Травки', 1976).wav

Peak level 25.0 % Track quality 100.0 % Test CRC 656A0183 Copy CRC 656A0183 Track not present in AccurateRip database Copy OK

Track 22

Filename F:\torrent\Skazka Stranstviy_Schnitke\score\22. Альфред Шнитке – Экипаж (Из к,ф 'Экипаж', 1979).wav

Peak level 19.2 % Track quality 100.0 % Test CRC 659930B2 Copy CRC 659930B2 Track not present in AccurateRip database Copy OK

Track 23

Filename F:\torrent\Skazka Stranstviy_Schnitke\score\23. Альфред Шнитке – Эпилог (Из к,ф 'Сказка странствий', 1983).wav

Peak level 24.1 % Track quality 100.0 % Test CRC B00E6A05 Copy CRC B00E6A05 Track not present in AccurateRip database Copy OK

None of the tracks are present in the AccurateRip database

No errors occurred

End of status report
 
REM GENRE SoundtrackREM DATE 2004REM DISCID 650E4618REM COMMENT "ExactAudioCopy v0.99pb4"PERFORMER "Альфред Шнитке"TITLE "Сказка странствий"FILE "01. Альфред Шнитке – Под рождество ((Из к,ф 'Сказка странствий', 1983).wav" WAVE TRACK 01 AUDIO TITLE "Под рождество ((Из к/ф 'Сказка странствий', 1983)" PERFORMER "Альфред Шнитке" FLAGS DCP INDEX 01 00:00:00FILE "02. Альфред Шнитке – Сказка странствий (Из к,ф 'Сказка странствий', 1983).wav" WAVE TRACK 02 AUDIO TITLE "Сказка странствий (Из к/ф 'Сказка странствий', 1983)" PERFORMER "Альфред Шнитке" FLAGS DCP INDEX 01 00:00:00FILE "03. Альфред Шнитке – Вальс-раздолье (Из к,ф 'Сказка странствий', 1983).wav" WAVE TRACK 03 AUDIO TITLE "Вальс-раздолье (Из к/ф 'Сказка странствий', 1983)" PERFORMER "Альфред Шнитке" FLAGS DCP INDEX 01 00:00:00FILE "04. Альфред Шнитке – По радуге (Из к,ф 'Приключения Травки', 1976).wav" WAVE TRACK 04 AUDIO TITLE "По радуге (Из к/ф 'Приключения Травки', 1976)" PERFORMER "Альфред Шнитке" FLAGS DCP INDEX 01 00:00:00FILE "05. Альфред Шнитке – Мелодия в старинном стиле (Из к,ф 'Похождения зубного врача', 1965).wav" WAVE TRACK 05 AUDIO TITLE "Мелодия в старинном стиле (Из к/ф 'Похождения зубного врача', 1965)" PERFORMER "Альфред Шнитке" FLAGS DCP INDEX 01 00:00:00FILE "06. Альфред Шнитке – Ночь (Из к,ф 'Приключения Травки', 1976).wav" WAVE TRACK 06 AUDIO TITLE "Ночь (Из к/ф 'Приключения Травки', 1976)" PERFORMER "Альфред Шнитке" FLAGS DCP INDEX 01 00:00:00FILE "07. Альфред Шнитке – Чарльстон (Из к,ф 'Похождения зубного врача', 1965).wav" WAVE TRACK 07 AUDIO TITLE "Чарльстон (Из к/ф 'Похождения зубного врача', 1965)" PERFORMER "Альфред Шнитке" FLAGS DCP INDEX 01 00:00:00FILE "08. Альфред Шнитке – Элегия (Из к,ф 'Осень', 1974).wav" WAVE TRACK 08 AUDIO TITLE "Элегия (Из к/ф 'Осень', 1974)" PERFORMER "Альфред Шнитке" FLAGS DCP INDEX 01 00:00:00FILE "09. Альфред Шнитке – Полёт (Из к,ф 'Сказка странствий', 1983).wav" WAVE TRACK 09 AUDIO TITLE "Полёт (Из к/ф 'Сказка странствий', 1983)" PERFORMER "Альфред Шнитке" FLAGS DCP INDEX 01 00:00:00FILE "10. Альфред Шнитке – Освобождение (Из к,ф 'Сказка странствий', 1983).wav" WAVE TRACK 10 AUDIO TITLE "Освобождение (Из к/ф 'Сказка странствий', 1983)" PERFORMER "Альфред Шнитке" FLAGS DCP INDEX 01 00:00:00FILE "11. Альфред Шнитке – Любовное настроение (Из к,ф 'Экипаж', 1979).wav" WAVE TRACK 11 AUDIO TITLE "Любовное настроение (Из к/ф 'Экипаж', 1979)" PERFORMER "Альфред Шнитке" FLAGS DCP INDEX 01 00:00:00FILE "12. Альфред Шнитке – Над городом (Из к,ф 'Приключения Травки', 1976).wav" WAVE TRACK 12 AUDIO TITLE "Над городом (Из к/ф 'Приключения Травки', 1976)" PERFORMER "Альфред Шнитке" FLAGS DCP INDEX 01 00:00:00FILE "13. Альфред Шнитке – Восхождение (Из к,ф 'Восхождение', 1976).wav" WAVE TRACK 13 AUDIO TITLE "Восхождение (Из к/ф 'Восхождение', 1976)" PERFORMER "Альфред Шнитке" FLAGS DCP INDEX 01 00:00:00FILE "14. Альфред Шнитке – Дети и шахматы (Из к,ф 'Клоуны и дети', 1976).wav" WAVE TRACK 14 AUDIO TITLE "Дети и шахматы (Из к/ф 'Клоуны и дети', 1976)" PERFORMER "Альфред Шнитке" FLAGS DCP INDEX 01 00:00:00FILE "15. Альфред Шнитке – Объяснение в любви (Из к,ф 'Сказка странствий', 1983).wav" WAVE TRACK 15 AUDIO TITLE "Объяснение в любви (Из к/ф 'Сказка странствий', 1983)" PERFORMER "Альфред Шнитке" FLAGS DCP INDEX 01 00:00:00FILE "16. Альфред Шнитке – Танго (Из к,ф 'Агония', 1975).wav" WAVE TRACK 16 AUDIO TITLE "Танго (Из к/ф 'Агония', 1975)" PERFORMER "Альфред Шнитке" FLAGS DCP INDEX 01 00:00:00FILE "17. Альфред Шнитке – Осень (Из к,ф 'Осень', 1974).wav" WAVE TRACK 17 AUDIO TITLE "Осень (Из к/ф 'Осень', 1974)" PERFORMER "Альфред Шнитке" FLAGS DCP INDEX 01 00:00:00FILE "18. Альфред Шнитке – Зимняя дорога (Из к,ф 'Музыка для воображаемой пьесы', 1985).wav" WAVE TRACK 18 AUDIO TITLE "Зимняя дорога (Из к/ф 'Музыка для воображаемой пьесы', 1985)" PERFORMER "Альфред Шнитке" FLAGS DCP INDEX 01 00:00:00FILE "19. Альфред Шнитке – Мелодия (Из к,ф 'Повесть о неизвестном актере', 1976).wav" WAVE TRACK 19 AUDIO TITLE "Мелодия (Из к/ф 'Повесть о неизвестном актере', 1976)" PERFORMER "Альфред Шнитке" FLAGS DCP INDEX 01 00:00:00FILE "20. Альфред Шнитке – Галоп (Из к,ф 'Приключения Травки', 1976).wav" WAVE TRACK 20 AUDIO TITLE "Галоп (Из к/ф 'Приключения Травки', 1976)" PERFORMER "Альфред Шнитке" FLAGS DCP INDEX 01 00:00:00FILE "21. Альфред Шнитке – Лес сказок (Из к,ф 'Приключения Травки', 1976).wav" WAVE TRACK 21 AUDIO TITLE "Лес сказок (Из к/ф 'Приключения Травки', 1976)" PERFORMER "Альфред Шнитке" FLAGS DCP INDEX 01 00:00:00FILE "22. Альфред Шнитке – Экипаж (Из к,ф 'Экипаж', 1979).wav" WAVE TRACK 22 AUDIO TITLE "Экипаж (Из к/ф 'Экипаж', 1979)" PERFORMER "Альфред Шнитке" FLAGS DCP INDEX 01 00:00:00FILE "23. Альфред Шнитке – Эпилог (Из к,ф 'Сказка странствий', 1983).wav" WAVE TRACK 23 AUDIO TITLE "Эпилог (Из к/ф 'Сказка странствий', 1983)" PERFORMER "Альфред Шнитке" FLAGS DCP INDEX 01 00:00:00


Трекер:  [ 16-Янв-2012 23:34 ]

  

Скачать .torrent

Размер .torrent файла 22 KB


Размер: 227 MB
Хэш (hash) релиза: 7ed6a0606aa9d83970a2b317c11862de4576b5af

bot

Топик был перенесен в форум Саундтреки к фильмам и мультфильмам (lossless)

Перенес uzi2009

Хотите добавить комментарий к записи скачать торрент Сказка странствий. Музыка из кинофильмов

!Обратная связь