Скачать через торрент музыку Сатисфакция - Игорь Каменской - 2005, FLAC бесплатно без регистрации torrent

Если у вас наблюдаются проблемы со скриншотами, переходом по ссылками, скачиванием торрентов - проблемы в блокировщике рекламы AdBlock. #хорошегоДня!


Статистика раздачи
Размер:  224 MB   |    Зарегистрирован:  5 лет 8 месяцев   |    .torrent скачан:  38 раз   |   
Раздают:  1  
   
Загрузка...
 
Автор Сообщение

uzi2009

avatar uzi2009


Сатисфакция



Жанр: Score
Композитор: Игорь Каменской
Год выпуска диска: 2005
Страна-производитель диска: Россия
Издатель (лейбл): Pyramid
Номер по каталогу: 500423
Аудио кодек: FLAC (*.flac)
Тип рипа: tracks+.cue
Битрейт аудио: lossless
Наличие сканов в содержимом раздачи: да
Продолжительность: 00:47:18

Трэклист:
1. Игра (оркестровка) 1:09
2. Игра (клавесин) 1:04
3. Игра (фортепиано) 1:04
4. Романс Шуленина (стихи Юрия Ряшенцева) исп. Александр Домогаров 2:36
5.Романс Шуленина (инструментал) 2:36
6.Романс Раевского (стихи Юрия Ряшенцева), исп. Виктор Раков 3:41
7. Романс Раевского (инструментал) 3:41
8. Поединок 3:22
9. Грусть (оркестровка) 3:20
10. Грусть (фортепиано) 3:20
11.Ностальгия (оркестровка) 2:22
12.Ностальгия (клавесин) 1:59
13.Сиам 4:45
14.Мужской сентимент (оркестровка) 4:15
15.Мужской сентимент (скрипка) 3:42
16.Мужской сентимент (фортепиано) 4:12

Доп. информация:
 
Exact Audio Copy V0.99 prebeta 4 from 23. January 2008

EAC extraction logfile from 28. June 2011, 15:18

Игорь Каменской / Сатисфакция

Used drive : Optiarc DVD RW AD-7241S Adapter: 1 ID: 1

Read mode : SecureUtilize accurate stream : YesDefeat audio cache : YesMake use of C2 pointers : No

Read offset correction : 48Overread into Lead-In and Lead-Out : NoFill up missing offset samples with silence : YesDelete leading and trailing silent blocks : NoNull samples used in CRC calculations : YesUsed interface : Installed external ASPI interfaceGap handling : Appended to previous track

Used output format : User Defined EncoderSelected bitrate : 1024 kBit/sQuality : HighAdd ID3 tag : NoCommand line compressor : C:\Program Files\Exact Audio Copy\Flac\flac.exeAdditional command line options : -V -8 -T "Genre=%m" -T "Artist=%a" -T "Title=%t" -T "Album=%g" -T "Date=%y" -T "Tracknumber=%n" -T "Comment=EAC FLAC -8" %s

TOC of the extracted CD

Track | Start | Length | Start sector | End sector --------------------------------------------------------- 1 | 0:00.00 | 1:09.50 | 0 | 5224 2 | 1:09.50 | 1:04.55 | 5225 | 10079 3 | 2:14.30 | 1:04.55 | 10080 | 14934 4 | 3:19.10 | 2:36.66 | 14935 | 26700 5 | 5:56.01 | 2:36.66 | 26701 | 38466 6 | 8:32.67 | 3:41.29 | 38467 | 55070 7 | 12:14.21 | 3:41.29 | 55071 | 71674 8 | 15:55.50 | 3:22.21 | 71675 | 86845 9 | 19:17.71 | 3:20.65 | 86846 | 101910 10 | 22:38.61 | 3:20.65 | 101911 | 116975 11 | 25:59.51 | 2:22.71 | 116976 | 127696 12 | 28:22.47 | 1:59.20 | 127697 | 136641 13 | 30:21.67 | 4:45.30 | 136642 | 158046 14 | 35:07.22 | 4:15.61 | 158047 | 177232 15 | 39:23.08 | 3:42.47 | 177233 | 193929 16 | 43:05.55 | 4:12.26 | 193930 | 212855

Track 1

Filename F:\torrent\Satisfakciya_Kamenskoy_OST\Satisfakciya_Kamenskoy_OST\01. Игорь Каменской – Игра (оркестровка).wav

Pre-gap length 0:00:02.00

Peak level 82.3 % Track quality 100.0 % Test CRC E3F82E42 Copy CRC E3F82E42 Track not present in AccurateRip database Copy OK

Track 2

Filename F:\torrent\Satisfakciya_Kamenskoy_OST\Satisfakciya_Kamenskoy_OST\02. Игорь Каменской – Игра (клавесин).wav

Pre-gap length 0:00:02.00

Peak level 56.4 % Track quality 99.8 % Test CRC 77AB426D Copy CRC 77AB426D Track not present in AccurateRip database Copy OK

Track 3

Filename F:\torrent\Satisfakciya_Kamenskoy_OST\Satisfakciya_Kamenskoy_OST\03. Игорь Каменской – Игра (фортепиано).wav

Pre-gap length 0:00:02.00

Peak level 63.1 % Track quality 99.8 % Test CRC 92A52254 Copy CRC 92A52254 Track not present in AccurateRip database Copy OK

Track 4

Filename F:\torrent\Satisfakciya_Kamenskoy_OST\Satisfakciya_Kamenskoy_OST\04. Игорь Каменской – Романс Шуленина (стихи Юрия Ряшенцева) , Александр Домогаров.wav

Pre-gap length 0:00:02.00

Peak level 55.6 % Track quality 100.0 % Test CRC 51D9F621 Copy CRC 51D9F621 Track not present in AccurateRip database Copy OK

Track 5

Filename F:\torrent\Satisfakciya_Kamenskoy_OST\Satisfakciya_Kamenskoy_OST\05. Игорь Каменской – Романс Шуленина (инструментал).wav

Pre-gap length 0:00:02.00

Peak level 54.2 % Track quality 100.0 % Test CRC C63FD80F Copy CRC C63FD80F Track not present in AccurateRip database Copy OK

Track 6

Filename F:\torrent\Satisfakciya_Kamenskoy_OST\Satisfakciya_Kamenskoy_OST\06. Игорь Каменской – Романс Раевского (стихи Юрия Ряшенцева) , Виктор Раков.wav

Pre-gap length 0:00:02.00

Peak level 57.2 % Track quality 100.0 % Test CRC 6C3EF1A0 Copy CRC 6C3EF1A0 Track not present in AccurateRip database Copy OK

Track 7

Filename F:\torrent\Satisfakciya_Kamenskoy_OST\Satisfakciya_Kamenskoy_OST\07. Игорь Каменской – Романс Раевского (инструментал).wav

Pre-gap length 0:00:02.00

Peak level 58.9 % Track quality 100.0 % Test CRC DF0FB97A Copy CRC DF0FB97A Track not present in AccurateRip database Copy OK

Track 8

Filename F:\torrent\Satisfakciya_Kamenskoy_OST\Satisfakciya_Kamenskoy_OST\08. Игорь Каменской – Поединок.wav

Pre-gap length 0:00:02.00

Peak level 67.5 % Track quality 100.0 % Test CRC C9D83649 Copy CRC C9D83649 Track not present in AccurateRip database Copy OK

Track 9

Filename F:\torrent\Satisfakciya_Kamenskoy_OST\Satisfakciya_Kamenskoy_OST\09. Игорь Каменской – Грусть (оркестровка).wav

Pre-gap length 0:00:02.00

Peak level 84.0 % Track quality 100.0 % Test CRC 415CA2CC Copy CRC 415CA2CC Track not present in AccurateRip database Copy OK

Track 10

Filename F:\torrent\Satisfakciya_Kamenskoy_OST\Satisfakciya_Kamenskoy_OST\10. Игорь Каменской – Грусть (фортепиано).wav

Pre-gap length 0:00:02.00

Peak level 42.9 % Track quality 100.0 % Test CRC DF778EA2 Copy CRC DF778EA2 Track not present in AccurateRip database Copy OK

Track 11

Filename F:\torrent\Satisfakciya_Kamenskoy_OST\Satisfakciya_Kamenskoy_OST\11. Игорь Каменской – Ностальгия (оркестровка).wav

Pre-gap length 0:00:02.00

Peak level 62.7 % Track quality 100.0 % Test CRC 17029A3F Copy CRC 17029A3F Track not present in AccurateRip database Copy OK

Track 12

Filename F:\torrent\Satisfakciya_Kamenskoy_OST\Satisfakciya_Kamenskoy_OST\12. Игорь Каменской – Ностальгия (клавесин).wav

Pre-gap length 0:00:02.00

Peak level 19.2 % Track quality 100.0 % Test CRC C13E02AE Copy CRC C13E02AE Track not present in AccurateRip database Copy OK

Track 13

Filename F:\torrent\Satisfakciya_Kamenskoy_OST\Satisfakciya_Kamenskoy_OST\13. Игорь Каменской – Сиам.wav

Pre-gap length 0:00:02.00

Peak level 64.1 % Track quality 100.0 % Test CRC 83BFD6EF Copy CRC 83BFD6EF Track not present in AccurateRip database Copy OK

Track 14

Filename F:\torrent\Satisfakciya_Kamenskoy_OST\Satisfakciya_Kamenskoy_OST\14. Игорь Каменской – Мужской сантимент (оркестровка).wav

Pre-gap length 0:00:02.00

Peak level 58.0 % Track quality 100.0 % Test CRC 74582CC1 Copy CRC 74582CC1 Track not present in AccurateRip database Copy OK

Track 15

Filename F:\torrent\Satisfakciya_Kamenskoy_OST\Satisfakciya_Kamenskoy_OST\15. Игорь Каменской – Мужской сантимент (скрипка).wav

Pre-gap length 0:00:02.00

Peak level 8.6 % Track quality 100.0 % Test CRC 2BD25D13 Copy CRC 2BD25D13 Track not present in AccurateRip database Copy OK

Track 16

Filename F:\torrent\Satisfakciya_Kamenskoy_OST\Satisfakciya_Kamenskoy_OST\16. Игорь Каменской – Мужской сантимент (фортепиано).wav

Pre-gap length 0:00:02.00

Peak level 36.5 % Track quality 99.9 % Test CRC B874CE96 Copy CRC B874CE96 Track not present in AccurateRip database Copy OK

None of the tracks are present in the AccurateRip database

No errors occurred

End of status report
 
REM GENRE SoundtrackREM DATE 2006REM DISCID C90B1610REM COMMENT "ExactAudioCopy v0.99pb4"PERFORMER "Игорь Каменской"TITLE "Сатисфакция"FILE "01. Игорь Каменской – Игра (оркестровка).wav" WAVE TRACK 01 AUDIO TITLE "Игра (оркестровка)" PERFORMER "Игорь Каменской" INDEX 01 00:00:00 TRACK 02 AUDIO TITLE "Игра (клавесин)" PERFORMER "Игорь Каменской" INDEX 00 01:07:50FILE "02. Игорь Каменской – Игра (клавесин).wav" WAVE INDEX 01 00:00:00 TRACK 03 AUDIO TITLE "Игра (фортепиано)" PERFORMER "Игорь Каменской" INDEX 00 01:02:55FILE "03. Игорь Каменской – Игра (фортепиано).wav" WAVE INDEX 01 00:00:00 TRACK 04 AUDIO TITLE "Романс Шуленина (стихи Юрия Ряшенцева) / Александр Домогаров" PERFORMER "Игорь Каменской" INDEX 00 01:02:55FILE "04. Игорь Каменской – Романс Шуленина (стихи Юрия Ряшенцева) , Александр Домогаров.wav" WAVE INDEX 01 00:00:00 TRACK 05 AUDIO TITLE "Романс Шуленина (инструментал)" PERFORMER "Игорь Каменской" INDEX 00 02:34:66FILE "05. Игорь Каменской – Романс Шуленина (инструментал).wav" WAVE INDEX 01 00:00:00 TRACK 06 AUDIO TITLE "Романс Раевского (стихи Юрия Ряшенцева) / Виктор Раков" PERFORMER "Игорь Каменской" INDEX 00 02:34:66FILE "06. Игорь Каменской – Романс Раевского (стихи Юрия Ряшенцева) , Виктор Раков.wav" WAVE INDEX 01 00:00:00 TRACK 07 AUDIO TITLE "Романс Раевского (инструментал)" PERFORMER "Игорь Каменской" INDEX 00 03:39:29FILE "07. Игорь Каменской – Романс Раевского (инструментал).wav" WAVE INDEX 01 00:00:00 TRACK 08 AUDIO TITLE "Поединок" PERFORMER "Игорь Каменской" INDEX 00 03:39:29FILE "08. Игорь Каменской – Поединок.wav" WAVE INDEX 01 00:00:00 TRACK 09 AUDIO TITLE "Грусть (оркестровка)" PERFORMER "Игорь Каменской" INDEX 00 03:20:21FILE "09. Игорь Каменской – Грусть (оркестровка).wav" WAVE INDEX 01 00:00:00 TRACK 10 AUDIO TITLE "Грусть (фортепиано)" PERFORMER "Игорь Каменской" INDEX 00 03:18:65FILE "10. Игорь Каменской – Грусть (фортепиано).wav" WAVE INDEX 01 00:00:00 TRACK 11 AUDIO TITLE "Ностальгия (оркестровка)" PERFORMER "Игорь Каменской" INDEX 00 03:18:65FILE "11. Игорь Каменской – Ностальгия (оркестровка).wav" WAVE INDEX 01 00:00:00 TRACK 12 AUDIO TITLE "Ностальгия (клавесин)" PERFORMER "Игорь Каменской" INDEX 00 02:20:71FILE "12. Игорь Каменской – Ностальгия (клавесин).wav" WAVE INDEX 01 00:00:00 TRACK 13 AUDIO TITLE "Сиам" PERFORMER "Игорь Каменской" INDEX 00 01:57:20FILE "13. Игорь Каменской – Сиам.wav" WAVE INDEX 01 00:00:00 TRACK 14 AUDIO TITLE "Мужской сантимент (оркестровка)" PERFORMER "Игорь Каменской" INDEX 00 04:43:30FILE "14. Игорь Каменской – Мужской сантимент (оркестровка).wav" WAVE INDEX 01 00:00:00 TRACK 15 AUDIO TITLE "Мужской сантимент (скрипка)" PERFORMER "Игорь Каменской" INDEX 00 04:13:61FILE "15. Игорь Каменской – Мужской сантимент (скрипка).wav" WAVE INDEX 01 00:00:00 TRACK 16 AUDIO TITLE "Мужской сантимент (фортепиано)" PERFORMER "Игорь Каменской" INDEX 00 03:40:47FILE "16. Игорь Каменской – Мужской сантимент (фортепиано).wav" WAVE INDEX 01 00:00:00


Трекер:  [ 16-Янв-2012 23:47 ]

  

Скачать .torrent

Размер .torrent файла 21 KB


Размер: 224 MB
Хэш (hash) релиза: d8657488a7e11bb6a97431018bc1caa7ad0d74ca

bot

Топик был перенесен в форум Саундтреки к фильмам и мультфильмам (lossless)

Перенес uzi2009

Хотите добавить комментарий к записи скачать торрент Сатисфакция - Игорь Каменской - 2005, FLAC

!Обратная связь