Скачать через торрент музыку Айболит-66 Женитьба Бальзаминова бесплатно без регистрации torrent

Если у вас наблюдаются проблемы со скриншотами, переходом по ссылками, скачиванием торрентов - проблемы в блокировщике рекламы AdBlock. #хорошегоДня!


Статистика раздачи
Размер:  400 MB   |    Зарегистрирован:  5 лет 7 месяцев   |    .torrent скачан:  29 раз   |   
Раздают:  1  
   
Загрузка...
 
Автор Сообщение

Galfimbul

avatar Galfimbul


Айболит-66, Женитьба Бальзаминова | Aibolit-66, Balzaminov's Marriage
Жанр: Score
Композитор: Борис Чайковский (Boris Tchaikovsky)
Год выпуска диска: 1999
Год выпуска фильма: 1966, 1964
Страна-производитель диска: РФ
Издательство: Boheme Music (BMR)
Номер по каталогу: CDBMR 908085
Аудиокодек: FLAC (*.flac)
Тип рипа: image+.cue
Битрейт аудио: lossless
Продолжительность: 1:08:03.547 (180 084 408 samples)
Источник: собственный рип
Сканы: jpg, 600 dpiАйболит-66 (Aibolit-66)
Вокально-симфоническая сюита из музыки к кинофильму, 1966. Стихи Вадима Коростылева
Vocal symphonic suite based on the music to the film, 1966. Lyrics by Vadim Korostylev
Запись 1988 года (Recorded in 1988)
01. Aibolit-66 (1966) - Overture (3:10)
02. Aibolit-66 (1966) - Prologue (2:43)
03. Aibolit-66 (1966) - Aibolit's Lullaby (2:07)
04. Aibolit-66 (1966) - Cry of Chi-Chi (1:55)
05. Aibolit-66 (1966) - March (1:06)
06. Aibolit-66 (1966) - Storm (3:55)
07. Aibolit-66 (1966) - Fog and Night (1:26)
08. Aibolit-66 (1966) - Pirates on Sharks (1:40)
09. Aibolit-66 (1966) - Africa (2:10)
10. Aibolit-66 (1966) - Normal Heroes (2:17)
11. Aibolit-66 (1966) - Aibolit's Song (3:25)
12. Aibolit-66 (1966) - Barmaley's Song (3:04)
13. Aibolit-66 (1966) - Desert (4:07)
14. Aibolit-66 (1966) - Magicians' Lullaby (2:37)
15. Aibolit-66 (1966) - Pirates' Song and Dance (3:48)
16. Aibolit-66 (1966) - Song of Sick Monkeys (1:35)
17. Aibolit-66 (1966) - Song of Healthy Monkeys (0:43)
18. Aibolit-66 (1966) - Fireworks (4:58)Женитьба Бальзаминова (Balzaminov's Marriage)
Сюита из музыки к кинофильму, 1964 (Suite based on the music to the film, 1964)
Запись 1990 года (Recorded in 1990)
19. Balzaminov's Marriage (1964) - Introduction (1:41)
20. Balzaminov's Marriage (1964) - Street-organ 'Buttercups-flowers' (Lyrics by K... (2:04)
21. Balzaminov's Marriage (1964) - Gypsy Song (1:05)
22. Balzaminov's Marriage (1964) - The First Dream - the General (3:34)
23. Balzaminov's Marriage (1964) - The Second Dream - the Tsar (5:07)
24. Balzaminov's Marriage (1964) - Horns - The Matchmaker's Dance (3:03)
25. Balzaminov's Marriage (1964) - Green Meadow, a song (2:04)
26. Balzaminov's Marriage (1964) - Conclusion (2:38)
 
Exact Audio Copy V0.99 prebeta 5 from 4. May 2009

Отчёт EAC об извлечении, выполненном 21. мая 2011, 19:27

Борис Чайковский / Айболит-66 (1988). Женитьба Бальзаминова (1990) (CDBMR 908085)

Дисковод: ASUS DRW-24B1ST Adapter: 3 ID: 0

Режим чтения : ДостоверностьИспользование точного потока : ДаОтключение кэша аудио : ДаИспользование указателей C2 : Нет

Коррекция смещения при чтении : 6Способность читать области Lead-in и Lead-out : НетЗаполнение пропущенных сэмплов тишиной : ДаУдаление блоков с тишиной в начале и конце : НетПри вычислениях CRC использовались нулевые сэмплы : ДаИнтерфейс : Встроенный Win32-интерфейс для Win NT/2000

Выходной формат : Внутренние WAV-операцииФормат сэмплов : 44.100 Гц; 16 бит; стерео

TOC извлечённого CD

Трек | Старт | Длительность | Начальный сектор | Конечный сектор --------------------------------------------------------------------- 1 | 0:00.00 | 3:10.30 | 0 | 14279 2 | 3:10.30 | 2:42.73 | 14280 | 26502 3 | 5:53.28 | 2:06.60 | 26503 | 36012 4 | 8:00.13 | 1:55.14 | 36013 | 44651 5 | 9:55.27 | 1:05.57 | 44652 | 49583 6 | 11:01.09 | 3:55.33 | 49584 | 67241 7 | 14:56.42 | 1:26.07 | 67242 | 73698 8 | 16:22.49 | 1:39.69 | 73699 | 81192 9 | 18:02.43 | 2:10.06 | 81193 | 90948 10 | 20:12.49 | 2:17.21 | 90949 | 101244 11 | 22:29.70 | 3:25.22 | 101245 | 116641 12 | 25:55.17 | 3:04.19 | 116642 | 130460 13 | 28:59.36 | 4:07.27 | 130461 | 149012 14 | 33:06.63 | 2:36.57 | 149013 | 160769 15 | 35:43.45 | 3:48.14 | 160770 | 177883 16 | 39:31.59 | 1:35.37 | 177884 | 185045 17 | 41:07.21 | 0:42.57 | 185046 | 188252 18 | 41:50.03 | 4:57.58 | 188253 | 210585 19 | 46:47.61 | 1:40.52 | 210586 | 218137 20 | 48:28.38 | 2:04.02 | 218138 | 227439 21 | 50:32.40 | 1:05.17 | 227440 | 232331 22 | 51:37.57 | 3:33.39 | 232332 | 248345 23 | 55:11.21 | 5:07.03 | 248346 | 271373 24 | 60:18.24 | 3:03.33 | 271374 | 285131 25 | 63:21.57 | 2:04.08 | 285132 | 294439 26 | 65:25.65 | 2:37.51 | 294440 | 306265

Характеристики диапазона извлечения и сообщения об ошибках

Выбранный диапазон

Имя файла D:\Music\!MyCDRips(wav)\Борис Чайковский - 1999 - Айболит-66. Женитьба Бальзаминова (CDBMR 908085)\Борис Чайковский - Айболит-66 (1988). Женитьба Бальзаминова (1990) (CDBMR 908085).wav

Пиковый уровень 97.3 % Качество диапазона 100.0 % CRC теста BE5F73C1 CRC копии BE5F73C1 Копирование... OK

Ошибок не произошло

AccurateRip: сводка

Трек 1 нет в базе данныхТрек 2 нет в базе данныхТрек 3 нет в базе данныхТрек 4 нет в базе данныхТрек 5 нет в базе данныхТрек 6 нет в базе данныхТрек 7 нет в базе данныхТрек 8 нет в базе данныхТрек 9 нет в базе данныхТрек 10 нет в базе данныхТрек 11 нет в базе данныхТрек 12 нет в базе данныхТрек 13 нет в базе данныхТрек 14 нет в базе данныхТрек 15 нет в базе данныхТрек 16 нет в базе данныхТрек 17 нет в базе данныхТрек 18 нет в базе данныхТрек 19 нет в базе данныхТрек 20 нет в базе данныхТрек 21 нет в базе данныхТрек 22 нет в базе данныхТрек 23 нет в базе данныхТрек 24 нет в базе данныхТрек 25 нет в базе данныхТрек 26 нет в базе данных

Ни одного трека нет в базе AccurateRip

Конец отчёта
 
AUDIOCHECKER v2.0 beta (build 457) - by Dester - opdester@freemail.hu~~~~~~~~~~~~~~~~~~~~~~~~~~~~~~~~~~-=== DO NOT EDIT THIS FILE! ===-

Path: ...\Борис Чайковский - Айболит-66. Женитьба Бальзаминова

1 -=- Борис Чайковский - Айболит-66. Женитьба Бальзаминова.flac -=- CDDA (100%)

265273252


Трекер:  [ 02-Фев-2012 21:52 ]

  

Скачать .torrent

Размер .torrent файла 17 KB


Размер: 400 MB
Хэш (hash) релиза: 869c8ba4103f9d7063b5e40b7fa0eb04aa086559

Торренты, похожие на Айболит-66 Женитьба Бальзаминова скачать торрент

Форум Название Автор Размер S L Добавлен
Саундтреки к фильмам и мультфильмам (mp3) ·· (Score) Айболит-66 / Женитьба Бальзаминова (Борис Чайковский) - 1999 (1964, 1966), MP3, 320 kbps Galfimbul 163532875156 MB 0 0 1321296035

21:40

14-Ноя-11

bot

Топик был перенесен в форум Саундтреки к фильмам и мультфильмам (lossless)

Перенес Galfimbul

Хотите добавить комментарий к записи скачать торрент Айболит-66 Женитьба Бальзаминова

!Обратная связь