Скачать через торрент музыку Песни для детей из кинофильмов бесплатно без регистрации torrent

Если у вас наблюдаются проблемы со скриншотами, переходом по ссылками, скачиванием торрентов - проблемы в блокировщике рекламы AdBlock. #хорошегоДня!


Статистика раздачи
Размер:  520 MB   |    Зарегистрирован:  5 лет 8 месяцев   |    .torrent скачан:  56 раз   |   
Раздают:  1  
   
Загрузка...
 
Автор Сообщение

uzi2009

avatar uzi2009


Песни для детей из кинофильмов



Жанр: Soundtrack
Композитор: Алексей Рыбников
Год выпуска диска: 2003
Страна-производитель диска: Россия
Издатель (лейбл): Бомба Мьюзик
Номер по каталогу: BoMB 033-104\105
Аудиокодек: APE (*.ape)
Тип рипа: image+.cue
Битрейт аудио: lossless
Наличие сканов в содержимом раздачи: да
01 Песня гонщиков
02 Песенка мастеров
03 Поле чудес
04 Необитаемый остров
05 Последняя поэма
06 Карантин
07 Бу-ра-ти-но
08 Песня Охотника
09 Песня пиратов
10 Колобок, колобок...
11 Романс Тортиллы
12 Млечный путь
13 Колыбельная кошки (Бонус-трек)
14 Прилетели восемь галок (Бонус-трек)
15 Книжка, с днём рождения (Бонус-трек)
16 Песня Козы (Бонус-трек)
17 Песня Волка и козлят (Бонус-трек)
18 Песня Мальвины (Бонус-трек)
19 Песенка про опечатку (Бонус-трек)
20 Песня паучка Ананси (Бонус-трек)
21 Буква "Я" (Бонус-трек)
01 Ералаш
02 Песня Лисы Алисы и Кота Базилио
03 Тема капитана Врунгеля
04 Песня Красной Шапочки
05 Ты мне веришь или нет
06 Усатый нянь
07 Песня о звёздах
08 Вот бы если
09 Песенка Дуремара
10 Песня волчицы
11 Тема летающего огнетушителя
12 Песенка пауков и Буратино
13 Книжкин дом (Бонус-трек)
14 Песенка клоуна Фантика (Бонус-трек)
15 Песня Бонки (Бонус-трек)
16 Песня Черныша (Бонус-трек)
17 Песня диких зверей (Бонус-трек)
18 Песня кошки, гулявшей сама по себе (Бонус-трек)
19 Загадки автомобиля (Бонус-трек)
20 Песня игрушечного щенка (Бонус-трек)
 
Exact Audio Copy V0.99 prebeta 5 from 4. May 2009

Отчёт EAC об извлечении, выполненном 3. декабря 2011, 18:31

А.Рыбников / Песни для детей из кинофильмов CD1

Дисковод: ATAPI iHAS324 Y Adapter: 5 ID: 0

Режим чтения : ДостоверностьИспользование точного потока : ДаОтключение кэша аудио : ДаИспользование указателей C2 : Нет

Коррекция смещения при чтении : 48Способность читать области Lead-in и Lead-out : НетЗаполнение пропущенных сэмплов тишиной : ДаУдаление блоков с тишиной в начале и конце : НетПри вычислениях CRC использовались нулевые сэмплы : ДаИнтерфейс : Встроенный Win32-интерфейс для Win NT/2000

Выходной формат : Monkey's Audio Lossless Encoder v3.99 DLLФормат сэмплов : Fast Lossless Compression

TOC извлечённого CD

Трек | Старт | Длительность | Начальный сектор | Конечный сектор --------------------------------------------------------------------- 1 | 0:00.00 | 3:20.65 | 0 | 15064 2 | 3:20.65 | 1:52.12 | 15065 | 23476 3 | 5:13.02 | 1:52.43 | 23477 | 31919 4 | 7:05.45 | 1:59.12 | 31920 | 40856 5 | 9:04.57 | 3:37.72 | 40857 | 57203 6 | 12:42.54 | 1:42.28 | 57204 | 64881 7 | 14:25.07 | 2:19.37 | 64882 | 75343 8 | 16:44.44 | 3:09.28 | 75344 | 89546 9 | 19:53.72 | 2:28.55 | 89547 | 100701 10 | 22:22.52 | 4:14.50 | 100702 | 119801 11 | 26:37.27 | 2:17.69 | 119802 | 130145 12 | 28:55.21 | 2:51.40 | 130146 | 143010 13 | 31:46.61 | 1:54.64 | 143011 | 151624 14 | 33:41.50 | 2:08.44 | 151625 | 161268 15 | 35:50.19 | 1:16.21 | 161269 | 166989 16 | 37:06.40 | 1:25.42 | 166990 | 173406 17 | 38:32.07 | 1:19.31 | 173407 | 179362 18 | 39:51.38 | 1:54.38 | 179363 | 187950 19 | 41:46.01 | 1:33.16 | 187951 | 194941 20 | 43:19.17 | 1:25.52 | 194942 | 201368 21 | 44:44.69 | 5:50.09 | 201369 | 227627

Характеристики диапазона извлечения и сообщения об ошибках

Выбранный диапазон

Имя файла D:\А.Рыбников - Песни для детей из кинофильмов CD1.ape

Пиковый уровень 100.0 % Качество диапазона 99.9 % CRC теста 2BDFE96A CRC копии 2BDFE96A Копирование... OK

Ошибок не произошло

AccurateRip: сводка

Трек 1 нет в базе данныхТрек 2 нет в базе данныхТрек 3 нет в базе данныхТрек 4 нет в базе данныхТрек 5 нет в базе данныхТрек 6 нет в базе данныхТрек 7 нет в базе данныхТрек 8 нет в базе данныхТрек 9 нет в базе данныхТрек 10 нет в базе данныхТрек 11 нет в базе данныхТрек 12 нет в базе данныхТрек 13 нет в базе данныхТрек 14 нет в базе данныхТрек 15 нет в базе данныхТрек 16 нет в базе данныхТрек 17 нет в базе данныхТрек 18 нет в базе данныхТрек 19 нет в базе данныхТрек 20 нет в базе данныхТрек 21 нет в базе данных

Ни одного трека нет в базе AccurateRip

Конец отчёта
 
Exact Audio Copy V0.99 prebeta 5 from 4. May 2009

Отчёт EAC об извлечении, выполненном 3. декабря 2011, 18:59

А.Рыбников / Песни для детей из кинофильмов CD2

Дисковод: ATAPI iHAS324 Y Adapter: 5 ID: 0

Режим чтения : ДостоверностьИспользование точного потока : ДаОтключение кэша аудио : ДаИспользование указателей C2 : Нет

Коррекция смещения при чтении : 48Способность читать области Lead-in и Lead-out : НетЗаполнение пропущенных сэмплов тишиной : ДаУдаление блоков с тишиной в начале и конце : НетПри вычислениях CRC использовались нулевые сэмплы : ДаИнтерфейс : Встроенный Win32-интерфейс для Win NT/2000

Выходной формат : Monkey's Audio Lossless Encoder v3.99 DLLФормат сэмплов : Fast Lossless Compression

TOC извлечённого CD

Трек | Старт | Длительность | Начальный сектор | Конечный сектор --------------------------------------------------------------------- 1 | 0:00.00 | 0:29.01 | 0 | 2175 2 | 0:29.01 | 2:56.32 | 2176 | 15407 3 | 3:25.33 | 2:10.17 | 15408 | 25174 4 | 5:35.50 | 2:23.65 | 25175 | 35964 5 | 7:59.40 | 2:52.55 | 35965 | 48919 6 | 10:52.20 | 2:19.34 | 48920 | 59378 7 | 13:11.54 | 4:18.26 | 59379 | 78754 8 | 17:30.05 | 3:07.49 | 78755 | 92828 9 | 20:37.54 | 2:26.51 | 92829 | 103829 10 | 23:04.30 | 1:52.04 | 103830 | 112233 11 | 24:56.34 | 1:42.38 | 112234 | 119921 12 | 26:38.72 | 1:17.62 | 119922 | 125758 13 | 27:56.59 | 1:26.12 | 125759 | 132220 14 | 29:22.71 | 3:16.48 | 132221 | 146968 15 | 32:39.44 | 1:10.73 | 146969 | 152291 16 | 33:50.42 | 1:26.54 | 152292 | 158795 17 | 35:17.21 | 1:15.40 | 158796 | 164460 18 | 36:32.61 | 1:24.21 | 164461 | 170781 19 | 37:57.07 | 4:23.44 | 170782 | 190550 20 | 42:20.51 | 0:57.69 | 190551 | 194894

Характеристики диапазона извлечения и сообщения об ошибках

Выбранный диапазон

Имя файла D:\А.Рыбников - Песни для детей из кинофильмов CD2.ape

Пиковый уровень 95.2 % Качество диапазона 100.0 % CRC теста 2398BEF1 CRC копии 2398BEF1 Копирование... OK

Ошибок не произошло

AccurateRip: сводка

Трек 1 нет в базе данныхТрек 2 нет в базе данныхТрек 3 нет в базе данныхТрек 4 нет в базе данныхТрек 5 нет в базе данныхТрек 6 нет в базе данныхТрек 7 нет в базе данныхТрек 8 нет в базе данныхТрек 9 нет в базе данныхТрек 10 нет в базе данныхТрек 11 нет в базе данныхТрек 12 нет в базе данныхТрек 13 нет в базе данныхТрек 14 нет в базе данныхТрек 15 нет в базе данныхТрек 16 нет в базе данныхТрек 17 нет в базе данныхТрек 18 нет в базе данныхТрек 19 нет в базе данныхТрек 20 нет в базе данных

Ни одного трека нет в базе AccurateRip

Конец отчёта


Трекер:  [ 18-Янв-2012 16:17 ]

  

Скачать .torrent

Размер .torrent файла 11 KB


Размер: 520 MB
Хэш (hash) релиза: 6a62550c77163d82eb2da9ea026c7d779bcbe990

bot

Топик был перенесен в форум Саундтреки к фильмам и мультфильмам (lossless)

Перенес uzi2009

Хотите добавить комментарий к записи скачать торрент Песни для детей из кинофильмов

!Обратная связь