Скачать через торрент музыку VA - N.Y. No Wave - The Ultimate East Village 80s Soundtrack - 2003, FLAC бесплатно без регистрации torrent

Если у вас наблюдаются проблемы со скриншотами, переходом по ссылками, скачиванием торрентов - проблемы в блокировщике рекламы AdBlock. #хорошегоДня!


Статистика раздачи
Размер:  396 MB   |    Зарегистрирован:  5 лет 7 месяцев   |    .torrent скачан:  29 раз   |   
Раздают:  1  
   
Загрузка...
 
Автор Сообщение

Galfimbul

avatar Galfimbul


Various Artists - N.Y.No Wave - The Ultimate East Village 80's Soundtrack
Жанр: No Wave
Страна-производитель диска: France
Год издания диска: 2003
Издатель (лейбл): ZE Records
Номер по каталогу: ZEREC.CD01
Аудиокодек: FLAC (*.flac)
Тип рипа: tracks+.cue
Битрейт аудио: lossless
Продолжительность: 59:30
Источник (релизер): what.cd
Наличие сканов в содержимом раздачи: нет
Треклист:
01. James White & The Blacks - Contort Yourself (3:07)
02. Lizzy Mercier Descloux - Wawa (2:25)
03. Lydia Lunch - Lady Scarface (3:14)
04. Suicide - Mister Ray (5:13)
05. Mars - 3E (2:55)
06. Teenage Jesus & The Jerks - The Closet (2:54)
07. Rosa Yemen - Rosa Vertov (1:47)
08. Arto & Neto - Pini Pini (2:30)
09. Lizzy Mercier Descloux - Torso Corso (1:47)
10. James White & The Blacks - Almost Black (3:19)
11. Mars - 11 000 Volts (3:28)
12. Lydia Lunch - Mechanical Flattery (2:47)
13. Rosa Yemen - Decryptated (1:23)
14. Teenage Jesus & The Jerks - Empty Eyes (1:37)
15. The Contortions - Designed To Kill (2:47)
16. Arto & Netu - Malu (3:24)
17. Teenage Jesus & The Jerks - Less Of Me (1:40)
18. Rosa Yemen - Larousse Baron Bic (1:39)
19. James Chance & Pill Factory - That's When Your Heartaches Begin (3:24)
20. Rosa Yemen - Herpes Simplex (2:05)
21. The Contortions - Twice Removed (3:05)
22. Suicide - Radiation (3:00)

Discogs.com
 
X Lossless Decoder version 20090215 (100.1)

XLD extraction logfile from 2009-03-14 05:30:05 -0400

Various Artists / N.Y No Wave

Used drive : PIONEER DVD-RW DVR-112D (revision BC14)

Use cdparanoia mode : YES (CDParanoia III 10.2 engine)Disable audio cache : OK for the drive with cache less than 2750KBMake use of C2 pointers : NORead offset correction : 48Max retry count : 100

TOC of the extracted CD Track | Start | Length | Start sector | End sector --------------------------------------------------------- 1 | 00:00:00 | 03:07:05 | 0 | 14029 2 | 03:07:05 | 02:25:32 | 14030 | 24936 3 | 05:32:37 | 03:14:53 | 24937 | 39539 4 | 08:47:15 | 05:13:04 | 39540 | 63018 5 | 14:00:19 | 02:55:50 | 63019 | 76193 6 | 16:55:69 | 02:54:45 | 76194 | 89288 7 | 19:50:39 | 01:47:47 | 89289 | 97360 8 | 21:38:11 | 02:30:27 | 97361 | 108637 9 | 24:08:38 | 01:47:03 | 108638 | 116665 10 | 25:55:41 | 03:19:04 | 116666 | 131594 11 | 29:14:45 | 03:28:56 | 131595 | 147250 12 | 32:43:26 | 02:47:03 | 147251 | 159778 13 | 35:30:29 | 01:23:64 | 159779 | 166067 14 | 36:54:18 | 01:37:64 | 166068 | 173406 15 | 38:32:07 | 02:47:04 | 173407 | 185935 16 | 41:19:11 | 03:24:56 | 185936 | 201291 17 | 44:43:67 | 01:40:43 | 201292 | 208834 18 | 46:24:35 | 01:39:03 | 208835 | 216262 19 | 48:03:38 | 03:24:43 | 216263 | 231605 20 | 51:28:06 | 02:05:04 | 231606 | 240984 21 | 53:33:10 | 03:05:04 | 240985 | 254863 22 | 56:38:14 | 03:00:03 | 254864 | 268366

Track 01 Filename : /we are the dreamers of dreams/Various Artists - N.Y No Wave/01 - V.A. - James White & The Blacks - Contort Yourself.flac

CRC32 hash (test run) : A49145F2 CRC32 hash : A49145F2 CRC32 hash (skip zero) : CE9C3A73 AccurateRip signature : 01126463 ->Track not present in AccurateRip database. Statistics Read error : 0 Skipped (treated as error) : 0 Edge jitter error (maybe fixed) : 0 Atom jitter error (maybe fixed) : 0 Drift error (maybe fixed) : 0 Dropped bytes error (maybe fixed) : 0 Duplicated bytes error (maybe fixed) : 0 Inconsistency in error sectors : 0

Track 02 Filename : /we are the dreamers of dreams/Various Artists - N.Y No Wave/02 - V.A. - Lizzy Mercier Descloux - Wawa.flac

CRC32 hash (test run) : 5D390B72 CRC32 hash : 5D390B72 CRC32 hash (skip zero) : 78DE6663 AccurateRip signature : 70E432D8 ->Track not present in AccurateRip database. Statistics Read error : 0 Skipped (treated as error) : 0 Edge jitter error (maybe fixed) : 0 Atom jitter error (maybe fixed) : 0 Drift error (maybe fixed) : 0 Dropped bytes error (maybe fixed) : 0 Duplicated bytes error (maybe fixed) : 0 Inconsistency in error sectors : 0

Track 03 Filename : /we are the dreamers of dreams/Various Artists - N.Y No Wave/03 - V.A. - Lydia Lunch - Lady Scarface.flac

CRC32 hash (test run) : 0D876FE4 CRC32 hash : 0D876FE4 CRC32 hash (skip zero) : 5A15B813 AccurateRip signature : 34F6D0F6 ->Track not present in AccurateRip database. Statistics Read error : 0 Skipped (treated as error) : 0 Edge jitter error (maybe fixed) : 0 Atom jitter error (maybe fixed) : 0 Drift error (maybe fixed) : 0 Dropped bytes error (maybe fixed) : 0 Duplicated bytes error (maybe fixed) : 0 Inconsistency in error sectors : 0

Track 04 Filename : /we are the dreamers of dreams/Various Artists - N.Y No Wave/04 - V.A. - Suicide - Mister Ray.flac

CRC32 hash (test run) : 622DA65E CRC32 hash : 622DA65E CRC32 hash (skip zero) : 5CE4FFA0 AccurateRip signature : A6C9A738 ->Track not present in AccurateRip database. Statistics Read error : 0 Skipped (treated as error) : 0 Edge jitter error (maybe fixed) : 0 Atom jitter error (maybe fixed) : 0 Drift error (maybe fixed) : 0 Dropped bytes error (maybe fixed) : 0 Duplicated bytes error (maybe fixed) : 0 Inconsistency in error sectors : 0

Track 05 Filename : /we are the dreamers of dreams/Various Artists - N.Y No Wave/05 - V.A. - Mars - 3E.flac

CRC32 hash (test run) : CDF7F954 CRC32 hash : CDF7F954 CRC32 hash (skip zero) : 750A2650 AccurateRip signature : 8C1EF3E0 ->Track not present in AccurateRip database. Statistics Read error : 0 Skipped (treated as error) : 0 Edge jitter error (maybe fixed) : 0 Atom jitter error (maybe fixed) : 0 Drift error (maybe fixed) : 0 Dropped bytes error (maybe fixed) : 0 Duplicated bytes error (maybe fixed) : 0 Inconsistency in error sectors : 0

Track 06 Filename : /we are the dreamers of dreams/Various Artists - N.Y No Wave/06 - V.A. - Teenage Jesus & The Jerks - The Closet.flac

CRC32 hash (test run) : 7B8940F0 CRC32 hash : 7B8940F0 CRC32 hash (skip zero) : 8CF64702 AccurateRip signature : DF8EA8B5 ->Track not present in AccurateRip database. Statistics Read error : 0 Skipped (treated as error) : 0 Edge jitter error (maybe fixed) : 0 Atom jitter error (maybe fixed) : 0 Drift error (maybe fixed) : 0 Dropped bytes error (maybe fixed) : 0 Duplicated bytes error (maybe fixed) : 0 Inconsistency in error sectors : 0

Track 07 Filename : /we are the dreamers of dreams/Various Artists - N.Y No Wave/07 - V.A. - Rosa Yemen - Rosa Vertov.flac

CRC32 hash (test run) : 188EE934 CRC32 hash : 188EE934 CRC32 hash (skip zero) : EAC02209 AccurateRip signature : 4CDF39B9 ->Track not present in AccurateRip database. Statistics Read error : 0 Skipped (treated as error) : 0 Edge jitter error (maybe fixed) : 0 Atom jitter error (maybe fixed) : 0 Drift error (maybe fixed) : 0 Dropped bytes error (maybe fixed) : 0 Duplicated bytes error (maybe fixed) : 0 Inconsistency in error sectors : 0

Track 08 Filename : /we are the dreamers of dreams/Various Artists - N.Y No Wave/08 - Arto - Neto - Pini,Pini.flac

CRC32 hash (test run) : 6A200C5A CRC32 hash : 6A200C5A CRC32 hash (skip zero) : 6FFE9D81 AccurateRip signature : 3D2D4765 ->Track not present in AccurateRip database. Statistics Read error : 0 Skipped (treated as error) : 0 Edge jitter error (maybe fixed) : 0 Atom jitter error (maybe fixed) : 0 Drift error (maybe fixed) : 0 Dropped bytes error (maybe fixed) : 0 Duplicated bytes error (maybe fixed) : 0 Inconsistency in error sectors : 0

Track 09 Filename : /we are the dreamers of dreams/Various Artists - N.Y No Wave/09 - V.A. - Lizzy Mercier Descloux - Torso Corso.flac

CRC32 hash (test run) : 1876EDF7 CRC32 hash : 1876EDF7 CRC32 hash (skip zero) : 015EFAED AccurateRip signature : 3EA98F80 ->Track not present in AccurateRip database. Statistics Read error : 0 Skipped (treated as error) : 0 Edge jitter error (maybe fixed) : 0 Atom jitter error (maybe fixed) : 0 Drift error (maybe fixed) : 0 Dropped bytes error (maybe fixed) : 0 Duplicated bytes error (maybe fixed) : 0 Inconsistency in error sectors : 0

Track 10 Filename : /we are the dreamers of dreams/Various Artists - N.Y No Wave/10 - V.A. - James White & The Blacks - Almost Black.flac

CRC32 hash (test run) : 95B96C17 CRC32 hash : 95B96C17 CRC32 hash (skip zero) : 05D9DE0C AccurateRip signature : E10DE68D ->Track not present in AccurateRip database. Statistics Read error : 0 Skipped (treated as error) : 0 Edge jitter error (maybe fixed) : 0 Atom jitter error (maybe fixed) : 0 Drift error (maybe fixed) : 0 Dropped bytes error (maybe fixed) : 0 Duplicated bytes error (maybe fixed) : 0 Inconsistency in error sectors : 0

Track 11 Filename : /we are the dreamers of dreams/Various Artists - N.Y No Wave/11 - V.A. - Mars - 11 000 Volts.flac

CRC32 hash (test run) : 9CD8553A CRC32 hash : 9CD8553A CRC32 hash (skip zero) : E482EBD8 AccurateRip signature : 649DB317 ->Track not present in AccurateRip database. Statistics Read error : 0 Skipped (treated as error) : 0 Edge jitter error (maybe fixed) : 0 Atom jitter error (maybe fixed) : 0 Drift error (maybe fixed) : 0 Dropped bytes error (maybe fixed) : 0 Duplicated bytes error (maybe fixed) : 0 Inconsistency in error sectors : 0

Track 12 Filename : /we are the dreamers of dreams/Various Artists - N.Y No Wave/12 - V.A. - Lydia Lunch - Mechanical Flattery.flac

CRC32 hash (test run) : 5881C436 CRC32 hash : 5881C436 CRC32 hash (skip zero) : FAA9316C AccurateRip signature : C35D58EB ->Track not present in AccurateRip database. Statistics Read error : 0 Skipped (treated as error) : 0 Edge jitter error (maybe fixed) : 0 Atom jitter error (maybe fixed) : 0 Drift error (maybe fixed) : 0 Dropped bytes error (maybe fixed) : 0 Duplicated bytes error (maybe fixed) : 0 Inconsistency in error sectors : 0

Track 13 Filename : /we are the dreamers of dreams/Various Artists - N.Y No Wave/13 - V.A. - Rosa Yemen - Decryptated.flac

CRC32 hash (test run) : 100D7C1A CRC32 hash : 100D7C1A CRC32 hash (skip zero) : 7CF965FE AccurateRip signature : 410869A3 ->Track not present in AccurateRip database. Statistics Read error : 0 Skipped (treated as error) : 0 Edge jitter error (maybe fixed) : 0 Atom jitter error (maybe fixed) : 0 Drift error (maybe fixed) : 0 Dropped bytes error (maybe fixed) : 0 Duplicated bytes error (maybe fixed) : 0 Inconsistency in error sectors : 0

Track 14 Filename : /we are the dreamers of dreams/Various Artists - N.Y No Wave/14 - V.A. - Teenage Jesus & The Jerks - Empty Eyes.flac

CRC32 hash (test run) : 84916334 CRC32 hash : 84916334 CRC32 hash (skip zero) : 95C90B96 AccurateRip signature : 6A1D042A ->Track not present in AccurateRip database. Statistics Read error : 0 Skipped (treated as error) : 0 Edge jitter error (maybe fixed) : 0 Atom jitter error (maybe fixed) : 0 Drift error (maybe fixed) : 0 Dropped bytes error (maybe fixed) : 0 Duplicated bytes error (maybe fixed) : 0 Inconsistency in error sectors : 0

Track 15 Filename : /we are the dreamers of dreams/Various Artists - N.Y No Wave/15 - V.A. - The Contortions - Designed To Kill.flac

CRC32 hash (test run) : 1FBDBF35 CRC32 hash : 1FBDBF35 CRC32 hash (skip zero) : 8981BFEA AccurateRip signature : 3B07E043 ->Track not present in AccurateRip database. Statistics Read error : 0 Skipped (treated as error) : 0 Edge jitter error (maybe fixed) : 0 Atom jitter error (maybe fixed) : 0 Drift error (maybe fixed) : 0 Dropped bytes error (maybe fixed) : 0 Duplicated bytes error (maybe fixed) : 0 Inconsistency in error sectors : 0

Track 16 Filename : /we are the dreamers of dreams/Various Artists - N.Y No Wave/16 - Arto - Neto - Malu.flac

CRC32 hash (test run) : C729035B CRC32 hash : C729035B CRC32 hash (skip zero) : 99FBF327 AccurateRip signature : 2E7541D1 ->Track not present in AccurateRip database. Statistics Read error : 0 Skipped (treated as error) : 0 Edge jitter error (maybe fixed) : 0 Atom jitter error (maybe fixed) : 0 Drift error (maybe fixed) : 0 Dropped bytes error (maybe fixed) : 0 Duplicated bytes error (maybe fixed) : 0 Inconsistency in error sectors : 0

Track 17 Filename : /we are the dreamers of dreams/Various Artists - N.Y No Wave/17 - V.A. - Teenage Jesus & The Jerks - Less Of Me.flac

CRC32 hash (test run) : 39BE6B25 CRC32 hash : 39BE6B25 CRC32 hash (skip zero) : EBD02E86 AccurateRip signature : 5961E391 ->Track not present in AccurateRip database. Statistics Read error : 0 Skipped (treated as error) : 0 Edge jitter error (maybe fixed) : 0 Atom jitter error (maybe fixed) : 0 Drift error (maybe fixed) : 0 Dropped bytes error (maybe fixed) : 0 Duplicated bytes error (maybe fixed) : 0 Inconsistency in error sectors : 0

Track 18 Filename : /we are the dreamers of dreams/Various Artists - N.Y No Wave/18 - V.A. - Rosa Yemen - Larousse Baron Bic.flac

CRC32 hash (test run) : B9F3C5AE CRC32 hash : B9F3C5AE CRC32 hash (skip zero) : 19DB7112 AccurateRip signature : 7C5563F5 ->Track not present in AccurateRip database. Statistics Read error : 0 Skipped (treated as error) : 0 Edge jitter error (maybe fixed) : 0 Atom jitter error (maybe fixed) : 0 Drift error (maybe fixed) : 0 Dropped bytes error (maybe fixed) : 0 Duplicated bytes error (maybe fixed) : 0 Inconsistency in error sectors : 0

Track 19 Filename : /we are the dreamers of dreams/Various Artists - N.Y No Wave/19 - V.A. - James Chance & Pill Factory - That's When Your Heartaches Begin.flac

CRC32 hash (test run) : A5460C9D CRC32 hash : A5460C9D CRC32 hash (skip zero) : 480D8783 AccurateRip signature : 918F4291 ->Track not present in AccurateRip database. Statistics Read error : 0 Skipped (treated as error) : 0 Edge jitter error (maybe fixed) : 0 Atom jitter error (maybe fixed) : 0 Drift error (maybe fixed) : 0 Dropped bytes error (maybe fixed) : 0 Duplicated bytes error (maybe fixed) : 0 Inconsistency in error sectors : 0

Track 20 Filename : /we are the dreamers of dreams/Various Artists - N.Y No Wave/20 - V.A. - Rosa Yemen - Herpes Simplex.flac

CRC32 hash (test run) : EDC8A2C0 CRC32 hash : EDC8A2C0 CRC32 hash (skip zero) : C23E476E AccurateRip signature : 17A6379F ->Track not present in AccurateRip database. Statistics Read error : 0 Skipped (treated as error) : 0 Edge jitter error (maybe fixed) : 0 Atom jitter error (maybe fixed) : 0 Drift error (maybe fixed) : 0 Dropped bytes error (maybe fixed) : 0 Duplicated bytes error (maybe fixed) : 0 Inconsistency in error sectors : 0

Track 21 Filename : /we are the dreamers of dreams/Various Artists - N.Y No Wave/21 - V.A. - The Contortions - Twice Removed.flac

CRC32 hash (test run) : E58199A9 CRC32 hash : E58199A9 CRC32 hash (skip zero) : 958D7969 AccurateRip signature : 3B8AC108 ->Track not present in AccurateRip database. Statistics Read error : 0 Skipped (treated as error) : 0 Edge jitter error (maybe fixed) : 0 Atom jitter error (maybe fixed) : 0 Drift error (maybe fixed) : 0 Dropped bytes error (maybe fixed) : 0 Duplicated bytes error (maybe fixed) : 0 Inconsistency in error sectors : 0

Track 22 Filename : /we are the dreamers of dreams/Various Artists - N.Y No Wave/22 - V.A. - Suicide - Radiation.flac

CRC32 hash (test run) : 766C4464 CRC32 hash : 766C4464 CRC32 hash (skip zero) : 55C354B9 AccurateRip signature : D40A927E ->Track not present in AccurateRip database. Statistics Read error : 0 Skipped (treated as error) : 0 Edge jitter error (maybe fixed) : 0 Atom jitter error (maybe fixed) : 0 Drift error (maybe fixed) : 0 Dropped bytes error (maybe fixed) : 0 Duplicated bytes error (maybe fixed) : 0 Inconsistency in error sectors : 0

No errors occurred

End of status report
 
REM GENRE "No Wave"REM DATE 2003TITLE "N.Y No Wave"FILE "01 - James White & The Blacks - Contort Yourself.wav" WAVE TRACK 01 AUDIO TITLE "Contort Yourself" PERFORMER "James White & The Blacks" INDEX 01 00:00:00 TRACK 02 AUDIO TITLE "Wawa" PERFORMER "Lizzy Mercier Descloux" INDEX 00 03:04:05FILE "02 - Lizzy Mercier Descloux - Wawa.wav" WAVE INDEX 01 00:00:00 TRACK 03 AUDIO TITLE "Lady Scarface" PERFORMER "Lydia Lunch" INDEX 00 02:22:32FILE "03 - Lydia Lunch - Lady Scarface.wav" WAVE INDEX 01 00:00:00 TRACK 04 AUDIO TITLE "Mister Ray" PERFORMER "Suicide" INDEX 00 03:11:53FILE "04 - Suicide - Mister Ray.wav" WAVE INDEX 01 00:00:00 TRACK 05 AUDIO TITLE "3E" PERFORMER "Mars" INDEX 00 05:10:04FILE "05 - Mars - 3E.wav" WAVE INDEX 01 00:00:00 TRACK 06 AUDIO TITLE "The Closet" PERFORMER "Teenage Jesus & The Jerks" INDEX 00 02:52:50FILE "06 - Teenage Jesus & The Jerks - The Closet.wav" WAVE INDEX 01 00:00:00 TRACK 07 AUDIO TITLE "Rosa Vertov" PERFORMER "Rosa Yemen" INDEX 00 02:51:45FILE "07 - Rosa Yemen - Rosa Vertov.wav" WAVE INDEX 01 00:00:00 TRACK 08 AUDIO TITLE "Pini Pini" PERFORMER "Arto & Neto" INDEX 00 01:44:47FILE "08 - Arto & Neto - Pini Pini.wav" WAVE INDEX 01 00:00:00 TRACK 09 AUDIO TITLE "Torso Corso" PERFORMER "Lizzy Mercier Descloux" INDEX 00 02:27:27FILE "09 - Lizzy Mercier Descloux - Torso Corso.wav" WAVE INDEX 01 00:00:00 TRACK 10 AUDIO TITLE "Almost Black" PERFORMER "James White & The Blacks" INDEX 00 01:44:03FILE "10 - James White & The Blacks - Almost Black.wav" WAVE INDEX 01 00:00:00 TRACK 11 AUDIO TITLE "11 000 Volts" PERFORMER "Mars" INDEX 00 03:16:04FILE "11 - Mars - 11 000 Volts.wav" WAVE INDEX 01 00:00:00 TRACK 12 AUDIO TITLE "Mechanical Flattery" PERFORMER "Lydia Lunch" INDEX 00 03:25:56FILE "12 - Lydia Lunch - Mechanical Flattery.wav" WAVE INDEX 01 00:00:00 TRACK 13 AUDIO TITLE "Decryptated" PERFORMER "Rosa Yemen" INDEX 00 02:44:03FILE "13 - Rosa Yemen - Decryptated.wav" WAVE INDEX 01 00:00:00 TRACK 14 AUDIO TITLE "Empty Eyes" PERFORMER "Teenage Jesus & The Jerks" INDEX 00 01:20:64FILE "14 - Teenage Jesus & The Jerks - Empty Eyes.wav" WAVE INDEX 01 00:00:00 TRACK 15 AUDIO TITLE "Designed To Kill" PERFORMER "The Contortions" INDEX 00 01:34:64FILE "15 - The Contortions - Designed To Kill.wav" WAVE INDEX 01 00:00:00 TRACK 16 AUDIO TITLE "Malu" PERFORMER "Arto & Neto" INDEX 00 02:44:04FILE "16 - Arto & Netu - Malu.wav" WAVE INDEX 01 00:00:00 TRACK 17 AUDIO TITLE "Less Of Me" PERFORMER "Teenage Jesus & The Jerks" INDEX 00 03:21:56FILE "17 - Teenage Jesus & The Jerks - Less Of Me.wav" WAVE INDEX 01 00:00:00 TRACK 18 AUDIO TITLE "Larousse Baron Bic" PERFORMER "Rosa Yemen" INDEX 00 01:37:43FILE "18 - Rosa Yemen - Larousse Baron Bic.wav" WAVE INDEX 01 00:00:00 TRACK 19 AUDIO TITLE "That's When Your Heartaches Begin" PERFORMER "James Chance & Pill Factory" INDEX 00 01:36:03FILE "19 - James Chance & Pill Factory - That's When Your Heartaches Begin.wav" WAVE INDEX 01 00:00:00 TRACK 20 AUDIO TITLE "Herpes Simplex" PERFORMER "Rosa Yemen" INDEX 00 03:21:43FILE "20 - Rosa Yemen - Herpes Simplex.wav" WAVE INDEX 01 00:00:00 TRACK 21 AUDIO TITLE "Twice Removed" PERFORMER "The Contortions" INDEX 00 02:02:04FILE "21 - The Contortions - Twice Removed.wav" WAVE INDEX 01 00:00:00 TRACK 22 AUDIO TITLE "Radiation" PERFORMER "Suicide" INDEX 00 03:02:04FILE "22 - Suicide - Radiation.wav" WAVE INDEX 01 00:00:00


Трекер:  [ 02-Фев-2012 21:52 ]

  

Скачать .torrent

Размер .torrent файла 33 KB


Размер: 396 MB
Хэш (hash) релиза: 710d810cf39c131256fa84525c368ce3daa56a95

bot

Топик был перенесен в форум Саундтреки к фильмам и мультфильмам (lossless)

Перенес Galfimbul

Хотите добавить комментарий к записи скачать торрент VA - N.Y. No Wave - The Ultimate East Village 80s Soundtrack - 2003, FLAC

!Обратная связь