Скачать через торрент музыку Только отважные None But The Brave бесплатно без регистрации torrent

Если у вас наблюдаются проблемы со скриншотами, переходом по ссылками, скачиванием торрентов - проблемы в блокировщике рекламы AdBlock. #хорошегоДня!


Статистика раздачи
Размер:  310 MB   |    Зарегистрирован:  5 лет 8 месяцев   |    .torrent скачан:  29 раз   |   
Раздают:  1  
   
Загрузка...
 
Автор Сообщение

uzi2009

avatar uzi2009


Только отважные / None But The Brave



Жанр: Score
Композитор: John Williams
Год выпуска диска: 2009
Год выпуска фильма: 1965
Страна-производитель диска: США
Издатель (лейбл): Film Score Monthly
Номер по каталогу: FSM Vol. 12 No. 12
Аудиокодек: WavPack (*.wv)
Тип рипа: image+.cue
Битрейт аудио: lossless
Продолжительность: 1:05:49
Наличие сканов в содержимом раздачи: нет

Треклист:
01. Main Title / Kuroki's Introduction (03:41)
02. The Boat Detail (01:47)
03. Busy Hands / Kuroki Prepares for War / Fishing Spear (02:03)
04. Night Adventure (03:26)
05. The Enemies Repair (01:42)
06. Ship in Sight / When Enemies Meet / Okuda Whistles / Kuroki's Challenge / Connection (07:28)
07. Brothers in Command / The Water Hole (02:59)
08. Water Logged (02:05)
09. Waiting for Battle (01:45)
10. The Dream of Hope Is Ashes / Hirano's Problem (04:40)
11. The Bargain / Mahoney Gets the News (01:32)
12. Uneasy Peace / Okuda and Craddock (03:49)
13. Kuroki's Reflection (02:10)
14. Mahoney's Reflection / Mahoney's Analysis (03:26)
15. Okuda and the Shark (01:31)
16. Good Friends Part / Radio Contact (02:09)
17. The Separation (01:45)
18. The Final Flight / The Spirit Lives / End Cast (05:59)
Bonus Tracks:
19. Piano Theme (01:40)
20. Word from Waikiki (01:15)
21. Kuroki's Introduction (alternate #1) (01:05)
22. Kuroki's Introduction (alternate #2) (01:05)
23. Trailer (00:48)
Single Recording:
24. None But the Brave (02:22)
25. Sylvia (02:46)
 
Exact Audio Copy V0.99 prebeta 5 from 4. May 2009

EAC extraction logfile from 2. July 2009, 13:37

Johnny Williams / None But the Brave

Used drive : HL-DT-STDVD-ROM GDR-H30N Adapter: 3 ID: 1

Read mode : SecureUtilize accurate stream : YesDefeat audio cache : YesMake use of C2 pointers : No

Read offset correction : 6Overread into Lead-In and Lead-Out : NoFill up missing offset samples with silence : YesDelete leading and trailing silent blocks : NoNull samples used in CRC calculations : YesUsed interface : Native Win32 interface for Win NT & 2000

Used output format : User Defined EncoderSelected bitrate : 1024 kBit/sQuality : HighAdd ID3 tag : NoCommand line compressor : C:\temp\wavpack.exeAdditional command line options : -w "Artist=%a" -w "Album=%g" -w "Year=%y" -w "Genre=%m" -hh -m -t %s %d

TOC of the extracted CD

Track | Start | Length | Start sector | End sector --------------------------------------------------------- 1 | 0:00.00 | 3:42.46 | 0 | 16695 2 | 3:42.46 | 1:48.56 | 16696 | 24851 3 | 5:31.27 | 2:05.12 | 24852 | 34238 4 | 7:36.39 | 3:27.67 | 34239 | 49830 5 | 11:04.31 | 1:44.24 | 49831 | 57654 6 | 12:48.55 | 7:30.03 | 57655 | 91407 7 | 20:18.58 | 3:01.19 | 91408 | 105001 8 | 23:20.02 | 2:06.60 | 105002 | 114511 9 | 25:26.62 | 1:46.43 | 114512 | 122504 10 | 27:13.30 | 4:41.48 | 122505 | 143627 11 | 31:55.03 | 1:34.09 | 143628 | 150686 12 | 33:29.12 | 3:50.41 | 150687 | 167977 13 | 37:19.53 | 2:11.65 | 167978 | 177867 14 | 39:31.43 | 3:27.18 | 177868 | 193410 15 | 42:58.61 | 1:33.27 | 193411 | 200412 16 | 44:32.13 | 2:12.18 | 200413 | 210330 17 | 46:44.31 | 1:43.59 | 210331 | 218114 18 | 48:28.15 | 6:05.71 | 218115 | 245560 19 | 54:34.11 | 1:42.03 | 245561 | 253213 20 | 56:16.14 | 1:17.39 | 253214 | 259027 21 | 57:33.53 | 1:06.30 | 259028 | 264007 22 | 58:40.08 | 1:07.35 | 264008 | 269067 23 | 59:47.43 | 0:50.57 | 269068 | 272874 24 | 60:38.25 | 2:24.35 | 272875 | 283709 25 | 63:02.60 | 2:46.16 | 283710 | 296175

Range status and errors

Selected range

Filename C:\Documents and Settings\seijas\Escritorio\Johnny Williams - None But the Brave.wav

Peak level 100.0 % Range quality 100.0 % Test CRC DFD7433D Copy CRC DFD7433D Copy OK

No errors occurred

End of status report
 
REM GENRE SoundtrackREM DATE 1965REM DISCID 5C0F6D19REM COMMENT "ExactAudioCopy v0.99pb5"PERFORMER "John Williams"TITLE "None But the Brave"FILE "John Williams - None But the Brave.wv" WAVE TRACK 01 AUDIO TITLE "Main Title / Kuroki's Introduction" PERFORMER "John Williams" INDEX 01 00:00:00 TRACK 02 AUDIO TITLE "THe Boat Detail" PERFORMER "John Williams" INDEX 00 03:41:21 INDEX 01 03:42:46 TRACK 03 AUDIO TITLE "Busy Hands / Kuroki Prepares for War / Fishing Spear" PERFORMER "John Williams" INDEX 00 05:30:05 INDEX 01 05:31:27 TRACK 04 AUDIO TITLE "Night Adventure" PERFORMER "John Williams" INDEX 00 07:34:50 INDEX 01 07:36:39 TRACK 05 AUDIO TITLE "The Enemies Repair" PERFORMER "John Williams" INDEX 00 11:03:37 INDEX 01 11:04:31 TRACK 06 AUDIO TITLE "Ship in Sight / When Enemies Meet / Okuda Whistles / Kuroki's Challenge / Con..." PERFORMER "John Williams" INDEX 00 12:46:58 INDEX 01 12:48:55 TRACK 07 AUDIO TITLE "Brothers in Command / The Water Hole" PERFORMER "John Williams" INDEX 00 20:17:04 INDEX 01 20:18:58 TRACK 08 AUDIO TITLE "Water Logged" PERFORMER "John Williams" INDEX 00 23:18:12 INDEX 01 23:20:02 TRACK 09 AUDIO TITLE "Waiting for Battle" PERFORMER "John Williams" INDEX 00 25:25:19 INDEX 01 25:26:62 TRACK 10 AUDIO TITLE "The Dream of Hope Is Ashes / Hirano's Problem" PERFORMER "John Williams" INDEX 00 27:12:13 INDEX 01 27:13:30 TRACK 11 AUDIO TITLE "The Bargain / Mahoney Gets the News" PERFORMER "John Williams" INDEX 00 31:54:08 INDEX 01 31:55:03 TRACK 12 AUDIO TITLE "Uneasy Peace / Okuda and Craddock" PERFORMER "John Williams" INDEX 00 33:27:59 INDEX 01 33:29:12 TRACK 13 AUDIO TITLE "Kuroki's Reflection" PERFORMER "John Williams" INDEX 00 37:18:43 INDEX 01 37:19:53 TRACK 14 AUDIO TITLE "Mahoney's Reflection / Mahoney's Analysis" PERFORMER "John Williams" INDEX 00 39:30:48 INDEX 01 39:31:43 TRACK 15 AUDIO TITLE "Okuda and the Shark" PERFORMER "John Williams" INDEX 00 42:57:69 INDEX 01 42:58:61 TRACK 16 AUDIO TITLE "Good Friends Part / Radio Contact" PERFORMER "John Williams" INDEX 00 44:30:07 INDEX 01 44:32:13 TRACK 17 AUDIO TITLE "The Separation" PERFORMER "John Williams" INDEX 00 46:41:66 INDEX 01 46:44:31 TRACK 18 AUDIO TITLE "The Final Fight / The Spirit Lives / End Cast" PERFORMER "John Williams" INDEX 00 48:27:46 INDEX 01 48:28:15 TRACK 19 AUDIO TITLE "Piano Theme (bonus)" PERFORMER "John Williams" INDEX 00 54:28:11 INDEX 01 54:34:11 TRACK 20 AUDIO TITLE "Word from Waikiki (bonus)" PERFORMER "John Williams" INDEX 00 56:14:36 INDEX 01 56:16:14 TRACK 21 AUDIO TITLE "Kuroki's Introduction, alternate #1 (bonus)" PERFORMER "John Williams" INDEX 00 57:32:01 INDEX 01 57:33:53 TRACK 22 AUDIO TITLE "Kuroki's Introduction, alternate #2 (bonus)" PERFORMER "John Williams" INDEX 00 58:39:36 INDEX 01 58:40:08 TRACK 23 AUDIO TITLE "Trailer (bonus)" PERFORMER "John Williams" INDEX 00 59:45:36 INDEX 01 59:47:43 TRACK 24 AUDIO TITLE "None But the Brave" PERFORMER "John Williams" INDEX 00 60:36:08 INDEX 01 60:38:25 TRACK 25 AUDIO TITLE "Sylvia" PERFORMER "John Williams" INDEX 00 63:01:04 INDEX 01 63:02:60


Трекер:  [ 18-Янв-2012 16:49 ]

  

Скачать .torrent

Размер .torrent файла 12 KB


Размер: 310 MB
Хэш (hash) релиза: 537e3ba9345fa849bdd14a76ea3f8ac649951c52

Торренты, похожие на Только отважные None But The Brave скачать торрент

Форум Название Автор Размер S L Добавлен
Саундтреки к фильмам и мультфильмам (mp3) ·· (Score) Только отважные / None But The Brave (by John Williams) - 2009 (1965), MP3, 320 kbps Mos 158391662151 MB 0 0 1326130288

20:31

9-Янв-12

bot

Топик был перенесен в форум Саундтреки к фильмам и мультфильмам (lossless)

Перенес uzi2009

Хотите добавить комментарий к записи скачать торрент Только отважные None But The Brave

!Обратная связь