Скачать через торрент музыку Юлий Цезарь Julius Caesar бесплатно без регистрации torrent

Если у вас наблюдаются проблемы со скриншотами, переходом по ссылками, скачиванием торрентов - проблемы в блокировщике рекламы AdBlock. #хорошегоДня!


Статистика раздачи
Размер:  221 MB   |    Зарегистрирован:  5 лет 8 месяцев   |    .torrent скачан:  42 раза   |   
Раздают:  1  
   
Загрузка...
 
Автор Сообщение

uzi2009

avatar uzi2009


Юлий Цезарь / Julius Caesar



Жанр: Score
Композитор: Miklos Rozsa
Год выпуска диска: 1995
Год выпуска фильма: 1953
Страна-производитель диска: США
Издатель (лейбл): Intrada
Номер по каталогу: MAF 7056D
Аудиокодек: APE (*.ape)
Тип рипа: image+.cue
Битрейт аудио: lossless
Продолжительность: 53:42
Наличие сканов в содержимом раздачи: да

Треклист:
01. Julius Caesar Overture (03:15)
02. Praeludium (03:38)
03. Caesar's Procession (02:45)
04. Flavius Arrested (00:18)
05. Feast Of Lupercal (00:44)
06. Caesar And His Train (00:51)
07. The Scolding Winds (02:42)
08. Brutus' Soliloquy (06:34)
09. Brutus' Secret (02:11)
10. They Murder Caesar (01:08)
11. The Ides Of March (04:36)
12. Black Sentence (03:55)
13. Brutus' Camp (01:31)
14. Heavy Eyes (01:47)
15. Gentle Knave (02:07)
16. Ghost Of Caesar (01:42)
17. Most Noble Brutus (01:10)
18. Battle At Philippi (01:28)
19. Titinius Enclosed (00:40)
20. Caesar Now Be Still! (08:54)
21. Finale (01:10)
 
EAC extraction logfile from 28. November 2006, 11:25 for CDMilklos Rozsa / Julius Caesar

Used drive : PIONEER DVD-RW DVR-111D Adapter: 1 ID: 0Read mode : Secure with NO C2, accurate stream, disable cacheRead offset correction : 48Overread into Lead-In and Lead-Out : Yes

Used output format : Internal WAV Routines 44.100 Hz; 16 Bit; Stereo

Other options : Fill up missing offset samples with silence : Yes Delete leading and trailing silent blocks : No Installed external ASPI interface

Range status and errorsSelected range Filename E:\Rozsa, Miklos - Julius Caesar (1953) [APE] {Intrada 1995 MAF7056D}\Milklos Rozsa - Julius Caesar.wav

Peak level 100.0 % Range quality 99.9 % CRC 2A70C936 Copy OK

No errors occured

End of status report
 
REM GENRE SoundtrackREM DATE 1995REM DISCID 130C9515REM COMMENT "ExactAudioCopy v0.95b4"PERFORMER "Miklos Rozsa"TITLE "Julius Caesar"FILE "Miklos Rozsa - Julius Caesar.ape" WAVE TRACK 01 AUDIO TITLE "Julius Caesar Overture" PERFORMER "Miklos Rozsa" INDEX 01 00:00:00 TRACK 02 AUDIO TITLE "Praeludium" PERFORMER "Miklos Rozsa" INDEX 00 03:16:30 INDEX 01 03:18:02 TRACK 03 AUDIO TITLE "Caesar's Procession" PERFORMER "Miklos Rozsa" INDEX 00 06:57:00 INDEX 01 06:57:65 TRACK 04 AUDIO TITLE "Flavius Arrested" PERFORMER "Miklos Rozsa" INDEX 00 09:44:12 INDEX 01 09:44:65 TRACK 05 AUDIO TITLE "Feast of Lupercal" PERFORMER "Miklos Rozsa" INDEX 01 10:04:25 TRACK 06 AUDIO TITLE "Caesar and his Train" PERFORMER "Miklos Rozsa" INDEX 01 10:49:30 TRACK 07 AUDIO TITLE "The Scolding Winds" PERFORMER "Miklos Rozsa" INDEX 01 11:41:32 TRACK 08 AUDIO TITLE "Brutus' Soliloquy" PERFORMER "Miklos Rozsa" INDEX 01 14:24:42 TRACK 09 AUDIO TITLE "Brutus' Secret" PERFORMER "Miklos Rozsa" INDEX 01 21:00:12 TRACK 10 AUDIO TITLE "They Murder Caesar" PERFORMER "Miklos Rozsa" INDEX 01 23:12:05 TRACK 11 AUDIO TITLE "The Ides of March" PERFORMER "Miklos Rozsa" INDEX 01 24:21:30 TRACK 12 AUDIO TITLE "Black Sentence" PERFORMER "Miklos Rozsa" INDEX 01 28:58:37 TRACK 13 AUDIO TITLE "Brutus' Camp" PERFORMER "Miklos Rozsa" INDEX 00 32:55:05 INDEX 01 32:56:45 TRACK 14 AUDIO TITLE "Heavy Eyes" PERFORMER "Miklos Rozsa" INDEX 00 34:28:60 INDEX 01 34:29:37 TRACK 15 AUDIO TITLE "Gentle Knave" PERFORMER "Miklos Rozsa" INDEX 00 36:18:00 INDEX 01 36:19:37 TRACK 16 AUDIO TITLE "Ghost of Caesar" PERFORMER "Miklos Rozsa" INDEX 00 38:27:60 INDEX 01 38:28:62 TRACK 17 AUDIO TITLE "Most Noble Brutus" PERFORMER "Miklos Rozsa" INDEX 00 40:12:10 INDEX 01 40:13:05 TRACK 18 AUDIO TITLE "Battle at Philippi" PERFORMER "Miklos Rozsa" INDEX 01 41:23:52 TRACK 19 AUDIO TITLE "Titinius Enclosed" PERFORMER "Miklos Rozsa" INDEX 00 42:52:70 INDEX 01 42:53:35 TRACK 20 AUDIO TITLE "Caesar Now Be Still!" PERFORMER "Miklos Rozsa" INDEX 01 43:34:07 TRACK 21 AUDIO TITLE "Finale" PERFORMER "Miklos Rozsa" INDEX 00 52:29:45 INDEX 01 52:30:17
 
Started at: вторник, 10. 01. 2012. - 2:41.47

1 file found

1 -===- C:\!_TORRENT\Miklos Rozsa - Julius Caesar (1995) [APE]\Miklos Rozsa - Julius Caesar.ape Extracted successfully Conclusion: This track looks like CDDA with probability 100% Tempfile successfully deleted.

Finished at: вторник, 10. 01. 2012. - 2:52.33 (operation time: 0:10.45)


Трекер:  [ 16-Янв-2012 23:58 ]

  

Скачать .torrent

Размер .torrent файла 18 KB


Размер: 221 MB
Хэш (hash) релиза: 0c24bd087c083c84b781b5633c06b8e1f741fc59

Торренты, похожие на Юлий Цезарь Julius Caesar скачать торрент

Форум Название Автор Размер S L Добавлен
Саундтреки к фильмам и мультфильмам (mp3) ·· (Score) Юлий Цезарь / Julius Caesar (by Miklos Rozsa) - 1995 (1953), MP3, 320 kbps Mos 133141922127 MB 0 0 1326187852

12:30

10-Янв-12

bot

Топик был перенесен в форум Саундтреки к фильмам и мультфильмам (lossless)

Перенес uzi2009

Хотите добавить комментарий к записи скачать торрент Юлий Цезарь Julius Caesar

!Обратная связь