Скачать через торрент музыку Spellbound - The Classic Film Scores Of Miklos Rozsa - 1991, FLAC бесплатно без регистрации torrent

Если у вас наблюдаются проблемы со скриншотами, переходом по ссылками, скачиванием торрентов - проблемы в блокировщике рекламы AdBlock. #хорошегоДня!


Статистика раздачи
Размер:  278 MB   |    Зарегистрирован:  5 лет 8 месяцев   |    .torrent скачан:  31 раз   |   
Раздают:  1  
   
Загрузка...
 
Автор Сообщение

uzi2009

avatar uzi2009


Spellbound - The Classic Film Scores Of Miklos Rozsa



Название альбома: Spellbound - The Classic Film Scores Of Miklos Rozsa
Жанр: Score
Композитор: Miklos Rozsa
Год выпуска диска: 1991
Страна-производитель диска: Германия
Издатель (лейбл): RCA Records
Номер по каталогу: GD 80911
Аудиокодек: FLAC (*.flac)
Тип рипа: image+.cue
Битрейт аудио: lossless
Продолжительность: 54:26
Наличие сканов в содержимом раздачи: да

Треклист:
01. Prelude (01:30)
THE RED HOUSE
02. The Morgan Farm, The New Hired Hand, Swimming Scene (03:23)
THE RED HOUSE
03. Meg Finds the Red House (01:55)
THE RED HOUSE
04. Teller Shoots at Meg (04:16)
THE RED HOUSE
05. Pete's Death and Finale (01:19)
THE RED HOUSE
06. The Love of the Princess (04:45)
THE THIEF OF BAGDAD
07. The Bottle, First Meeting (02:07)
THE LOST WEEKEND
08. The Mouse and the Bat, Nightmare (05:09)
THE LOST WEEKEND
09. Love Scene and Finale (02:30)
THE LOST WEEKEND
10. Sunstroke, River Journey (07:52)
THE FOUR FEATHERS
11. Mrs. Dietrichson, The Conspiracy (03:18)
DOUBLE INDEMNITY
12. Scherzo: Hawks in Flight (01:17)
KNIGHTS OF THE ROUND TABLE
13. Song of the Jungle (03:28)
THE JUNGLE BOOK
14. The Dream Sequence, The Mountain Lodge (05:25)
SPELLBOUND
15. Overture (05:27)
IVANHOE
 
EAC extraction logfile from 4. January 2007, 19:29 for CDMiklos Rozsa / spellbound classic film scores

Used drive : HL-DT-STCD-RW GCE-8526B Adapter: 1 ID: 1Read mode : Secure with NO C2, accurate stream, disable cacheRead offset correction : 6Overread into Lead-In and Lead-Out : No

Used output format : Internal WAV Routines 44.100 Hz; 16 Bit; Stereo

Other options : Fill up missing offset samples with silence : Yes Delete leading and trailing silent blocks : No Installed external ASPI interface

Range status and errorsSelected range Filename C:\EAC\Charles Gerhardt - Spellbound Classic Film Scores Of Miklos Rozsa\Miklos Rozsa - spellbound classic film scores.wav

Peak level 72.2 % Range quality 100.0 % CRC 899F73BB Copy OK

No errors occured

End of status report
 
REM GENRE SoundtrackREM DATE 1991REM DISCID C40CC20FREM COMMENT "ExactAudioCopy v0.95b3"PERFORMER "Miklos Rozsa"TITLE "Spellbound The Classic Film Scores Of Miklos Rozsa"FILE "Spellbound The Classic Film Scores Of Miklos Rozsa.flac" WAVE TRACK 01 AUDIO TITLE "Prelude" PERFORMER "Miklos Rozsa" INDEX 00 00:00:00 INDEX 01 00:00:38 TRACK 02 AUDIO TITLE "The Morgan Farm, The New Hired Hand, Swimming Scene" PERFORMER "Miklos Rozsa" INDEX 01 01:31:35 TRACK 03 AUDIO TITLE "Meg Finds the Red House" PERFORMER "Miklos Rozsa" INDEX 01 04:55:00 TRACK 04 AUDIO TITLE "Teller Shoots at Meg" PERFORMER "Miklos Rozsa" INDEX 01 06:50:25 TRACK 05 AUDIO TITLE "Pete's Death and Finale" PERFORMER "Miklos Rozsa" INDEX 01 11:05:38 TRACK 06 AUDIO TITLE "The Love of the Princess" PERFORMER "Miklos Rozsa" INDEX 00 12:27:23 INDEX 01 12:29:33 TRACK 07 AUDIO TITLE "The Bottle, First Meeting" PERFORMER "Miklos Rozsa" INDEX 00 17:16:18 INDEX 01 17:18:10 TRACK 08 AUDIO TITLE "The Mouse and the Bat, Nightmare" PERFORMER "Miklos Rozsa" INDEX 01 19:25:53 TRACK 09 AUDIO TITLE "Love Scene and Finale" PERFORMER "Miklos Rozsa" INDEX 01 24:34:03 TRACK 10 AUDIO TITLE "Sunstroke, River Journey" PERFORMER "Miklos Rozsa" INDEX 00 27:07:13 INDEX 01 27:10:10 TRACK 11 AUDIO TITLE "Mrs. Dietrichson, The Conspiracy" PERFORMER "Miklos Rozsa" INDEX 00 35:04:05 INDEX 01 35:07:10 TRACK 12 AUDIO TITLE "Scherzo: Hawks in Flight" PERFORMER "Miklos Rozsa" INDEX 00 38:27:55 INDEX 01 38:30:13 TRACK 13 AUDIO TITLE "Song of the Jungle" PERFORMER "Miklos Rozsa" INDEX 00 39:49:18 INDEX 01 39:52:25 TRACK 14 AUDIO TITLE "The Dream Sequence, The Mountain Lodge" PERFORMER "Miklos Rozsa" INDEX 00 43:23:03 INDEX 01 43:25:10 TRACK 15 AUDIO TITLE "Overture" PERFORMER "Miklos Rozsa" INDEX 00 48:53:60 INDEX 01 48:56:10
 
Started at: среда, 11. 01. 2012. - 23:38.42

1 file found

1 -===- C:\!_TORRENT\Miklos Rozsa - Spellbound The Classic Film Scores Of Miklos Rozsa (1991) [FLAC]\Spellbound The Classic Film Scores Of Miklos Rozsa.flac Extracted successfully Conclusion: This track looks like CDDA with probability 100% Tempfile successfully deleted.

Finished at: среда, 11. 01. 2012. - 23:44.28 (operation time: 0:05.46)


Трекер:  [ 18-Янв-2012 16:57 ]

  

Скачать .torrent

Размер .torrent файла 12 KB


Размер: 278 MB
Хэш (hash) релиза: 6f8879f5b958d5417b706fd482d737bc3a639ea5

bot

Топик был перенесен в форум Саундтреки к фильмам и мультфильмам (lossless)

Перенес uzi2009

Хотите добавить комментарий к записи скачать торрент Spellbound - The Classic Film Scores Of Miklos Rozsa - 1991, FLAC

!Обратная связь