Скачать через торрент музыку Vangelis - Conquest Of Paradise бесплатно без регистрации torrent

Если у вас наблюдаются проблемы со скриншотами, переходом по ссылками, скачиванием торрентов - проблемы в блокировщике рекламы AdBlock. #хорошегоДня!


Статистика раздачи
Размер:  125 MB   |    Зарегистрирован:  5 лет 8 месяцев   |    .torrent скачан:  42 раза   |   
Раздают:  1  
   
Загрузка...
 
Автор Сообщение

Galfimbul

avatar Galfimbul


Vangelis - Conquest Of Paradise (OST-1492: Conquest of Paradise)

Страна: Греция
Жанр: New age
Продолжительность: 00:04:45
Год выпуска: 1992 г.

Описание: Клип к фильму "1492: Завоевание рая" (1492: Conquest of Paradise), в главных ролях которого снимались Жерар Депардье, Арманд Ассанте, Сигурни Уивер, Чеки Карио, Кевин Данн, Фрэнк Ланджелла.

Источник: собственный рип

Качество: SATRip
Контейнер: VOB
Видео кодек: MPEG2
Аудио кодек: AC3
Видео: MPEG2 Video 720x576 (4:3) 25.00fps 3393 Kbps [Video]
Аудио: Dolby AC3 48000Hz stereo 192kbps [AC-3]
General
Complete name : N:\РАЗДАЧИ\OST\Vangelis - Conquest Of Paradise (OST-1492 - Conquest of Paradise).VOB
Format : MPEG-PS
File size : 125 MiB
Duration : 4mn 45s
Overall bit rate : 3 657 Kbps

Video
ID : 224 (0xE0)
Format : MPEG Video
Format version : Version 2
Format profile : Main@Main
Format settings, BVOP : Yes
Format settings, Matrix : Default
Duration : 4mn 45s
Bit rate mode : Variable
Bit rate : 3 393 Kbps
Nominal bit rate : 9 608 Kbps
Width : 720 pixels
Height : 576 pixels
Display aspect ratio : 4:3
Frame rate : 25.000 fps
Standard : PAL
Color space : YUV
Chroma subsampling : 4:2:0
Bit depth : 8 bits
Scan type : Progressive
Compression mode : Lossy
Bits/(Pixel*Frame) : 0.327
Stream size : 116 MiB (93%)

Audio
ID : 189 (0xBD)-128 (0x80)
Format : AC-3
Format/Info : Audio Coding 3
Mode extension : CM (complete main)
Muxing mode : DVD-Video
Duration : 4mn 45s
Bit rate mode : Constant
Bit rate : 192 Kbps
Channel(s) : 2 channels
Channel positions : Front: L R
Sampling rate : 48.0 KHz
Bit depth : 16 bits
Compression mode : Lossy
Stream size : 6.54 MiB (5%)

Menu


Трекер:  [ 19-Янв-2012 15:39 ]

  

Скачать .torrent

Размер .torrent файла 20 KB


Размер: 125 MB
Хэш (hash) релиза: a471f7d521c8072c4b17926ac36f498fafc226a4

Торренты, похожие на Vangelis - Conquest Of Paradise скачать торрент

Форум Название Автор Размер S L Добавлен
Саундтреки к фильмам и мультфильмам (lossless) ·· (Score) 1492: Завоевание рая / 1492: Conquest Of Paradise (by Vangelis) - 1992, FLAC (image+.cue), lossless Galfimbul 341472719326 MB 0 0 1292268758

22:32

13-Дек-10

bot

Топик был перенесен в форум Фольклор, Народная и Этническая музыка (video)

Перенес Galfimbul

Хотите добавить комментарий к записи скачать торрент Vangelis - Conquest Of Paradise

!Обратная связь