Скачать через торрент музыку Владимир Высоцкий - Grand Collection, Часть 2 - 2004, APE бесплатно без регистрации torrent

Если у вас наблюдаются проблемы со скриншотами, переходом по ссылками, скачиванием торрентов - проблемы в блокировщике рекламы AdBlock. #хорошегоДня!


Статистика раздачи
Размер:  367 MB   |    Зарегистрирован:  5 лет 8 месяцев   |    .torrent скачан:  342 раза   |   
Раздают:  1  
   
Загрузка...
 
Автор Сообщение

Galfimbul

avatar Galfimbul


Владимир Высоцкий - Grand Collection, Часть 2
Жанр: Авторская песня
Год выпуска диска: 2004
Производитель диска: Россия
Аудио кодек: APE
Тип рипа: image+.cue
Битрейт аудио: lossless
Продолжительность: 01:14:21
01. 'Здесь лапы у елей дрожат на весу...' (3:35)
02. Баллада о любви (6:18)
03. Дом хрустальный (2:15)
04. Ноль семь (2:28)
05. Скалолазка (1:39)
06. Москва-Одесса (2:36)
07. Песня о судьбе (4:00)
08. 'Сыт я по горло, до подбородка...' (0:55)
09. Лукоморья больше нет (4:26)
10. Песня-сказка о нечисти (2:49)
11. Братские могилы (1:16)
12. Сыновья уходят в бой (2:32)
13. Песня самолёта-истребителя (3:26)
14. Натянутый канат (3:20)
15. Песня о госпитале (1:07)
16. Тот, который не стрелял (3:03)
17. Случай в ресторане (1:54)
18. 'Мой друг уехал в Магадан...' (2:34)
19. Парус (1:18)
20. Спасите наши души (3:56)
21. Я из дела ушёл (2:17)
22. 'У меня было сорок фамилий...' (1:03)
23. 'Передо мной любой факир ну просто карлик...' (1:15)
24. 'За меня невеста отрыдает честно...' (2:03)
25. Весна ещё в начале (2:10)
26. Инструкция перед поездкой за рубеж, или полчаса в месткоме (4:36)
27. Песенка о переселении душ (2:08)
28. Песенка ни про что, или что случилось в Африке (1:49)
29. Утренняя гимнастика (1:33)
Exact Audio Copy V0.99 prebeta 4 from 23. January 2008

Отчёт EAC об извлечении, выполненном 22. августа 2008, 21:58

Владимир Высоцкий / Grand Collection. Часть 2

Дисковод: ASUS CRW-5232AS Adapter: 3 ID: 0

Режим чтения : Достоверность
Использование точного потока : Да
Отключение кэша аудио : Да
Использование указателей C2 : Нет

Коррекция смещения при чтении : 6
Способность читать области Lead-in и Lead-out : Нет
Заполнение пропущенных сэмплов тишиной : Да
Удаление блоков с тишиной в начале и конце : Нет
При вычислениях CRC использовались нулевые сэмплы : Да
Интерфейс : Установленный внешний ASPI-интерфейс

Выходной формат : Monkey's Audio (без потерь)
Выбранный битрейт : Normal Lossless Compression
Качество : Высокий
Добавление ID3-тэга : Нет
Утилита сжатия : C:\Program Files\Monkey's Audio\MAC.exe

TOC извлечённого CD

Трек | Старт | Длительность | Начальный сектор | Конечный сектор
---------------------------------------------------------------------
1 | 0:00.00 | 3:34.43 | 0 | 16092
2 | 3:34.43 | 6:18.00 | 16093 | 44442
3 | 9:52.43 | 2:14.54 | 44443 | 54546
4 | 12:07.22 | 2:28.09 | 54547 | 65655
5 | 14:35.31 | 1:38.47 | 65656 | 73052
6 | 16:14.03 | 2:36.25 | 73053 | 84777
7 | 18:50.28 | 4:00.09 | 84778 | 102786
8 | 22:50.37 | 0:55.15 | 102787 | 106926
9 | 23:45.52 | 4:26.29 | 106927 | 126905
10 | 28:12.06 | 2:48.67 | 126906 | 139572
11 | 31:00.73 | 1:16.08 | 139573 | 145280
12 | 32:17.06 | 2:31.38 | 145281 | 156643
13 | 34:48.44 | 3:25.39 | 156644 | 172057
14 | 38:14.08 | 3:19.70 | 172058 | 187052
15 | 41:34.03 | 1:06.68 | 187053 | 192070
16 | 42:40.71 | 3:02.73 | 192071 | 205793
17 | 45:43.69 | 1:53.40 | 205794 | 214308
18 | 47:37.34 | 2:33.51 | 214309 | 225834
19 | 50:11.10 | 1:17.45 | 225835 | 231654
20 | 51:28.55 | 3:55.66 | 231655 | 249345
21 | 55:24.46 | 2:17.31 | 249346 | 259651
22 | 57:42.02 | 1:02.68 | 259652 | 264369
23 | 58:44.70 | 1:15.12 | 264370 | 270006
24 | 60:00.07 | 2:03.26 | 270007 | 279257
25 | 62:03.33 | 2:09.49 | 279258 | 288981
26 | 64:13.07 | 4:35.53 | 288982 | 309659
27 | 68:48.60 | 2:08.10 | 309660 | 319269
28 | 70:56.70 | 1:49.30 | 319270 | 327474
29 | 72:46.25 | 1:33.11 | 327475 | 334460

Характеристики диапазона извлечения и сообщения об ошибках

Выбранный диапазон

Имя файла W:\Музыка\1. Авторская песня\Владимир Высоцкий HQ\Владимир Высоцкий - Grand Collection. Часть 2\Владимир Высоцкий - Grand Collection. Часть 2.wav

Пиковый уровень 98.8 %
Качество диапазона 99.9 %
CRC теста 9A6DE0FB
CRC копии 9A6DE0FB
Копирование... OK

Ошибок не произошло

Конец отчёта
Часть 1 - http://unionpeer.org/topic/206853-vladimir-visotski...-ape.html#381479

Трекер:  [ 11-Янв-2012 12:34 ]

  

Скачать .torrent

Размер .torrent файла 15 KB


Размер: 367 MB
Хэш (hash) релиза: be6c1f63594a1eb2e919cabe95ce32447a93cb12

Еще никто не оставлял запись к записи скачать торрент Владимир Высоцкий - Grand Collection, Часть 2 - 2004, APE . Будь первым!

!Обратная связь