Скачать через торрент музыку Земля фараонов Перестрелка в О.К. Коррал бесплатно без регистрации torrent

Если у вас наблюдаются проблемы со скриншотами, переходом по ссылками, скачиванием торрентов - проблемы в блокировщике рекламы AdBlock. #хорошегоДня!


Статистика раздачи
Размер:  445 MB   |    Зарегистрирован:  5 лет 7 месяцев   |    .torrent скачан:  31 раз   |   
Раздают:  1  
   
Загрузка...
 
Автор Сообщение

Galfimbul

avatar Galfimbul


Земля фараонов / Перестрелка в О.К. Коррал / Великий и могучий / В поисках рая / / Land Of The Pharaohs / Gunfight At The O.K. Corral / The High And The Mighty / Search For Paradise

Жанр: Score
Композитор: Dimitri Tiomkin
Год выпуска диска: 2006
Год выпуска фильма: 1955 / 1957 / 1954 / 1957
Страна-производитель диска: США
Издатель (лейбл): Film Score Monthly
Номер по каталогу: FSM Box 01 (Elmer Bernstein's Film Music Collection, CD11)
Аудиокодек: WavPack (*.wv)
Тип рипа: image+.cue
Битрейт аудио: lossless
Продолжительность: 1:18:35
Источник: emule
Наличие сканов в содержимом раздачи: да

Треклист:
01. Prelude (02:07)
02. Pharaoh's Procession (04:47)
03. Funeral Song Of Joy (01:33)
04. Vashtar (02:18)
05. The Building Of The Tomb (03:50)
06. Pharaoh's Grief (01:11)
07. The Labyrinth (02:31)
08. The Sealing Of The Tomb (02:18)
09. Finale (01:57)
tracks 1-9: Land Of The Pharaohs (1955)
10. Prelude (Ballad Part 1) (04:02)
11. Lynch Mob (Ballad Parts 2 And 3) (05:30)
12. Gun Battle (05:10)
13. Finale (Ballad Part 4) (01:25)
tracks 10-13: Gunfight At The O.K. Corral (1957)
14. Prelude And Take-Off (03:07)
15. Safe Landing (04:19)
tracks 14-15: The High And The Mighty (1954)
16. Prologue And Hunza Valley (07:39)
17. Come Ye Discontented (04:11)
18. Killer Mountain (07:07)
19. Shalimar (04:51)
20. Kashmir (04:18)
21. Epilogue (03:30)
tracks 16-21: Search For Paradise (1957)
 
Exact Audio Copy V0.99 prebeta 4 from 23. January 2008

EAC extraction logfile from 17. September 2008, 19:53

Dimitri Tiomkin / Land Of The Pharaohs, Gunfight At The O.K. Corral & Search For Paradise (FMC)

Used drive : PIONEER BD-ROM BDC-202 Adapter: 1 ID: 0

Read mode : SecureUtilize accurate stream : YesDefeat audio cache : YesMake use of C2 pointers : No

Read offset correction : 667Overread into Lead-In and Lead-Out : YesFill up missing offset samples with silence : YesDelete leading and trailing silent blocks : NoNull samples used in CRC calculations : YesUsed interface : Installed external ASPI interface

Used output format : Internal WAV RoutinesSample format : 44.100 Hz; 16 Bit; Stereo

TOC of the extracted CD

Track | Start | Length | Start sector | End sector --------------------------------------------------------- 1 | 0:00.00 | 2:08.14 | 0 | 9613 2 | 2:08.14 | 4:52.01 | 9614 | 31514 3 | 7:00.15 | 1:33.61 | 31515 | 38550 4 | 8:34.01 | 2:21.12 | 38551 | 49137 5 | 10:55.13 | 3:52.49 | 49138 | 66586 6 | 14:47.62 | 1:12.70 | 66587 | 72056 7 | 16:00.57 | 2:35.26 | 72057 | 83707 8 | 18:36.08 | 2:18.06 | 83708 | 94063 9 | 20:54.14 | 2:03.17 | 94064 | 103305 10 | 22:57.31 | 4:03.13 | 103306 | 121543 11 | 27:00.44 | 5:31.22 | 121544 | 146390 12 | 32:31.66 | 5:12.09 | 146391 | 169799 13 | 37:44.00 | 1:31.39 | 169800 | 176663 14 | 39:15.39 | 3:09.13 | 176664 | 190851 15 | 42:24.52 | 4:22.18 | 190852 | 210519 16 | 46:46.70 | 7:40.66 | 210520 | 245085 17 | 54:27.61 | 4:13.19 | 245086 | 264079 18 | 58:41.05 | 7:09.58 | 264080 | 296312 19 | 65:50.63 | 4:52.39 | 296313 | 318251 20 | 70:43.27 | 4:21.23 | 318252 | 337849 21 | 75:04.50 | 3:30.31 | 337850 | 353630

Range status and errors

Selected range

Filename F:\Discos\Dimitri Tiomkin - Land Of The Pharaohs, Gunfight At The O.K. Corral & Search For Paradise (FMC)\Land Of The Pharaohs, Gunfight At The O.K. Corral & Search For Paradise (FMC).wav

Peak level 98.0 % Range quality 100.0 % Copy CRC 91958AD9 Copy OK

No errors occurred

AccurateRip summary

Track 1 not present in databaseTrack 2 not present in databaseTrack 3 not present in databaseTrack 4 not present in databaseTrack 5 not present in databaseTrack 6 not present in databaseTrack 7 not present in databaseTrack 8 not present in databaseTrack 9 not present in databaseTrack 10 not present in databaseTrack 11 not present in databaseTrack 12 not present in databaseTrack 13 not present in databaseTrack 14 not present in databaseTrack 15 not present in databaseTrack 16 not present in databaseTrack 17 not present in databaseTrack 18 not present in databaseTrack 19 not present in databaseTrack 20 not present in databaseTrack 21 not present in database

None of the tracks are present in the AccurateRip database

End of status report
 
REM GENRE SoundtrackREM DATE 2006REM DISCID 37126B15REM COMMENT "ExactAudioCopy v0.99pb4"PERFORMER "Dimitri Tiomkin"TITLE "Land Of The Pharaohs, Gunfight At The O.K. Corral, The High And The Mighty, Search For Paradise"FILE "Land Of The Pharaohs, Gunfight At The O.K. Corral, The High And The Mighty, Search For Paradise.wv" WAVE TRACK 01 AUDIO TITLE "Prelude" PERFORMER "Dimitri Tiomkin" INDEX 01 00:00:00 TRACK 02 AUDIO TITLE "Pharaoh's Procession" PERFORMER "Dimitri Tiomkin" INDEX 00 02:07:54 INDEX 01 02:08:14 TRACK 03 AUDIO TITLE "Funeral Song Of Joy" PERFORMER "Dimitri Tiomkin" INDEX 00 06:55:51 INDEX 01 07:00:15 TRACK 04 AUDIO TITLE "Vashtar" PERFORMER "Dimitri Tiomkin" INDEX 01 08:34:01 TRACK 05 AUDIO TITLE "The Building Of The Tomb" PERFORMER "Dimitri Tiomkin" INDEX 00 10:52:68 INDEX 01 10:55:13 TRACK 06 AUDIO TITLE "Pharaoh's Grief" PERFORMER "Dimitri Tiomkin" INDEX 00 14:45:65 INDEX 01 14:47:62 TRACK 07 AUDIO TITLE "The Labyrinth" PERFORMER "Dimitri Tiomkin" INDEX 00 15:58:73 INDEX 01 16:00:57 TRACK 08 AUDIO TITLE "The Sealing Of The Tomb" PERFORMER "Dimitri Tiomkin" INDEX 00 18:32:54 INDEX 01 18:36:08 TRACK 09 AUDIO TITLE "Finale" PERFORMER "Dimitri Tiomkin" INDEX 01 20:54:14 TRACK 10 AUDIO TITLE "Prelude (Ballad Part 1)" PERFORMER "Dimitri Tiomkin" INDEX 00 22:51:36 INDEX 01 22:57:31 TRACK 11 AUDIO TITLE "Lynch Mob (Ballad Parts 2 & 3)" PERFORMER "Dimitri Tiomkin" INDEX 00 26:59:46 INDEX 01 27:00:44 TRACK 12 AUDIO TITLE "Gun Battle" PERFORMER "Dimitri Tiomkin" INDEX 00 32:30:48 INDEX 01 32:31:66 TRACK 13 AUDIO TITLE "Finale (Ballad Part 4)" PERFORMER "Dimitri Tiomkin" INDEX 00 37:42:26 INDEX 01 37:44:00 TRACK 14 AUDIO TITLE "Prelude And Take-Off" PERFORMER "Dimitri Tiomkin" INDEX 00 39:09:32 INDEX 01 39:15:39 TRACK 15 AUDIO TITLE "Safe Landing" PERFORMER "Dimitri Tiomkin" INDEX 00 42:22:58 INDEX 01 42:24:52 TRACK 16 AUDIO TITLE "Prologue And Hunza Valley" PERFORMER "Dimitri Tiomkin" INDEX 00 46:43:58 INDEX 01 46:46:70 TRACK 17 AUDIO TITLE "Come Ye Discontented" PERFORMER "Dimitri Tiomkin" INDEX 00 54:26:53 INDEX 01 54:27:61 TRACK 18 AUDIO TITLE "Killer Mountain" PERFORMER "Dimitri Tiomkin" INDEX 00 58:39:03 INDEX 01 58:41:05 TRACK 19 AUDIO TITLE "Shalimar" PERFORMER "Dimitri Tiomkin" INDEX 00 65:49:11 INDEX 01 65:50:63 TRACK 20 AUDIO TITLE "Kashmir" PERFORMER "Dimitri Tiomkin" INDEX 00 70:41:68 INDEX 01 70:43:27 TRACK 21 AUDIO TITLE "Epilogue" PERFORMER "Dimitri Tiomkin" INDEX 00 75:02:23 INDEX 01 75:04:50


Трекер:  [ 02-Фев-2012 21:51 ]

  

Скачать .torrent

Размер .torrent файла 18 KB


Размер: 445 MB
Хэш (hash) релиза: 04caafc0ccc1c5119fde6e6d883904bf016ddbb7

Торренты, похожие на Земля фараонов Перестрелка в О.К. Коррал скачать торрент

Форум Название Автор Размер S L Добавлен
Саундтреки к фильмам и мультфильмам (mp3) ·· (Score) Земля фараонов / Перестрелка в О.К. Коррал / Великий и могучий / В поисках рая // Land Of The Pharaohs / Gunfight At The O.K. Corral / The High And The Mighty / Search For Paradise (Dimitri Tiomkin) - 2006 (1955/1957/1954/1957), MP3, 320 kbps Mos 194572200186 MB 0 0 1325667658

12:00

4-Янв-12

bot

Топик был перенесен в форум Саундтреки к фильмам и мультфильмам (lossless)

Перенес Galfimbul

Хотите добавить комментарий к записи скачать торрент Земля фараонов Перестрелка в О.К. Коррал

!Обратная связь