Скачать через торрент музыку Соседка The Girl Next Door бесплатно без регистрации torrent

Если у вас наблюдаются проблемы со скриншотами, переходом по ссылками, скачиванием торрентов - проблемы в блокировщике рекламы AdBlock. #хорошегоДня!


Статистика раздачи
Размер:  436 MB   |    Зарегистрирован:  5 лет 7 месяцев   |    .torrent скачан:  27 раз   |   
Раздают:  1  
   
Загрузка...
 
Автор Сообщение

Galfimbul

avatar Galfimbul


Соседка / The Girl Next Door
Жанр: Soundtrack
Композитор: Paul Haslinger
Год выпуска диска: 2004
Страна-производитель диска: Germany (optimal media production GmbH, IFPI L571)
Издатель (лейбл): Superb Records / Edel
Номер по каталогу: 0156022ERE
EAN/UPC: 4029758560228
Аудиокодек: FLAC (*.flac)
Тип рипа: tracks+.cue
Битрейт аудио: lossless
Продолжительность: 01:13:42
Источник: собственный рип
Наличие сканов в содержимом раздачи: да (CD и обложки, 600dpi)
01. Paul Haslinger / The Plan [0:01:03.07]
02. Filter / Take A Picture [0:06:02.62]
03. Thunderclap Newman / Something In The Air [0:03:57.58]
04. Paul Haslinger / Peeping Matt [0:00:50.50]
05. Pornosonic / Dick Dagger's Theme [0:03:10.20]
06. Monster Magnet / Dopes To Infinity [0:05:46.40]
07. Paul Haslinger / Carpe Beachum [0:00:40.63]
08. Fantastic Plastic Machine / Electric Lady Land [0:04:20.02]
09. Youth Of Today / Break Down The Walls [0:02:05.38]
10. Harry Nilsson / Jump Into The Fire [0:07:03.37]
11. Sneaker Pimps / Spin Spin Sugar (Radio Edit) [0:03:34.73]
12. Methods of Mayhem / Get Naked [0:03:23.05]
13. Echo and the Bunnymen / The Killing Moon [0:05:48.65]
14. Pep Defux / Big Muff [0:04:47.67]
15. Josh Rouse / Sparrows Over Birminhan [0:04:59.70]
16. Paul Haslinger / BankMeltdown [0:02:30.08]
17. Ralph Myerz And The Jack Herren Band / Think Twice [0:06:17.32]
18. Lynyrd Skynyrd / Sweet Home Alabama [0:04:47.00]
19. Paul Haslinger / The End [0:02:32.15]

 
Exact Audio Copy V1.0 beta 3 from 29. August 2011

EAC extraction logfile from 29. December 2011, 14:08

- / The Girl Next Door

Used drive : TSSTcorpCD/DVDW SH-S182M Adapter: 0 ID: 0

Read mode : SecureUtilize accurate stream : YesDefeat audio cache : YesMake use of C2 pointers : No

Read offset correction : 6Overread into Lead-In and Lead-Out : NoFill up missing offset samples with silence : YesDelete leading and trailing silent blocks : NoNull samples used in CRC calculations : YesUsed interface : Native Win32 interface for Win NT & 2000Gap handling : Appended to previous track

Used output format : User Defined EncoderSelected bitrate : 1024 kBit/sQuality : HighAdd ID3 tag : NoCommand line compressor : C:\Program Files\Exact Audio Copy\Flac\flac.exeAdditional command line options : -8 -V -T "ARTIST=%artist%" -T "TITLE=%title%" -T "ALBUM=%albumtitle%" -T "DATE=%year%" -T "TRACKNUMBER=%tracknr%" -T "GENRE=%genre%" -T "PERFORMER=%albuminterpret%" -T "COMPOSER=%composer%" %source% -o %dest%

TOC of the extracted CD

Track | Start | Length | Start sector | End sector --------------------------------------------------------- 1 | 0:00.00 | 1:03.07 | 0 | 4731 2 | 1:03.07 | 6:02.62 | 4732 | 31943 3 | 7:05.69 | 3:57.58 | 31944 | 49776 4 | 11:03.52 | 0:50.50 | 49777 | 53576 5 | 11:54.27 | 3:10.20 | 53577 | 67846 6 | 15:04.47 | 5:46.40 | 67847 | 93836 7 | 20:51.12 | 0:40.63 | 93837 | 96899 8 | 21:32.00 | 4:20.02 | 96900 | 116401 9 | 25:52.02 | 2:05.38 | 116402 | 125814 10 | 27:57.40 | 7:03.37 | 125815 | 157576 11 | 35:01.02 | 3:34.73 | 157577 | 173699 12 | 38:36.00 | 3:23.05 | 173700 | 188929 13 | 41:59.05 | 5:48.65 | 188930 | 215094 14 | 47:47.70 | 4:47.67 | 215095 | 236686 15 | 52:35.62 | 4:59.70 | 236687 | 259181 16 | 57:35.57 | 2:30.08 | 259182 | 270439 17 | 60:05.65 | 6:17.32 | 270440 | 298746 18 | 66:23.22 | 4:47.00 | 298747 | 320271 19 | 71:10.22 | 2:32.15 | 320272 | 331686

Track 1

Filename C:\Music\01 - Paul Haslinger - The Plan.wav

Pre-gap length 0:00:02.00

Peak level 90.9 % Extraction speed 2.4 X Track quality 99.8 % Test CRC 36AD48F4 Copy CRC 36AD48F4 Cannot be verified as accurate (confidence 2) [1504340F], AccurateRip returned [500F8F3F] (AR v2) Copy OK

Track 2

Filename C:\Music\02 - Filter - Take A Picture.wav

Peak level 80.2 % Extraction speed 4.3 X Track quality 100.0 % Test CRC D2B59AD4 Copy CRC D2B59AD4 Accurately ripped (confidence 2) [CA1AAF94] (AR v1) Copy OK

Track 3

Filename C:\Music\03 - Thunderclap Newman - Something In The Air.wav

Peak level 63.7 % Extraction speed 5.5 X Track quality 100.0 % Test CRC C7B3C943 Copy CRC C7B3C943 Accurately ripped (confidence 2) [097B494C] (AR v1) Copy OK

Track 4

Filename C:\Music\04 - Paul Haslinger - Peeping Matt.wav

Peak level 90.9 % Extraction speed 3.8 X Track quality 100.0 % Test CRC 856DDFCE Copy CRC 856DDFCE Accurately ripped (confidence 2) [D1CDC2B7] (AR v1) Copy OK

Track 5

Filename C:\Music\05 - Pornosonic - Dick Dagger's Theme.wav

Peak level 89.9 % Extraction speed 5.6 X Track quality 100.0 % Test CRC 4333D540 Copy CRC 4333D540 Accurately ripped (confidence 2) [CE4FDE30] (AR v1) Copy OK

Track 6

Filename C:\Music\06 - Monster Magnet - Dopes To Infinity.wav

Peak level 78.3 % Extraction speed 6.5 X Track quality 100.0 % Test CRC 98521070 Copy CRC 98521070 Accurately ripped (confidence 2) [923414E8] (AR v1) Copy OK

Track 7

Filename C:\Music\07 - Paul Haslinger - Carpe Beachum.wav

Peak level 89.9 % Extraction speed 2.6 X Track quality 99.7 % Test CRC 6CEA44DE Copy CRC 6CEA44DE Accurately ripped (confidence 2) [47CD7A08] (AR v1) Copy OK

Track 8

Filename C:\Music\08 - Fantastic Plastic Machine - Electric Lady Land.wav

Peak level 84.9 % Extraction speed 6.7 X Track quality 100.0 % Test CRC A719A73E Copy CRC A719A73E Accurately ripped (confidence 2) [327105AD] (AR v1) Copy OK

Track 9

Filename C:\Music\09 - Youth Of Today - Break Down The Walls.wav

Peak level 84.9 % Extraction speed 5.0 X Track quality 99.9 % Test CRC 03F0A60B Copy CRC 03F0A60B Accurately ripped (confidence 2) [124F7E99] (AR v1) Copy OK

Track 10

Filename C:\Music\10 - Harry Nilsson - Jump Into The Fire.wav

Peak level 99.9 % Extraction speed 7.7 X Track quality 100.0 % Test CRC 54437DA3 Copy CRC 54437DA3 Accurately ripped (confidence 2) [3E6A893B] (AR v1) Copy OK

Track 11

Filename C:\Music\11 - Sneaker Pimps - Spin Spin Sugar (Radio Edit).wav

Peak level 80.2 % Extraction speed 7.4 X Track quality 100.0 % Test CRC 70BE972B Copy CRC 70BE972B Accurately ripped (confidence 2) [437E05E2] (AR v1) Copy OK

Track 12

Filename C:\Music\12 - Methods of Mayhem - Get Naked.wav

Peak level 78.3 % Extraction speed 7.5 X Track quality 100.0 % Test CRC 0FC6CD35 Copy CRC 0FC6CD35 Accurately ripped (confidence 2) [3EA82D37] (AR v1) Copy OK

Track 13

Filename C:\Music\13 - Echo and the Bunnymen - The Killing Moon.wav

Peak level 89.9 % Extraction speed 8.3 X Track quality 100.0 % Test CRC 13455B7B Copy CRC 13455B7B Accurately ripped (confidence 2) [A94783BA] (AR v1) Copy OK

Track 14

Filename C:\Music\14 - Pep Defux - Big Muff.wav

Peak level 89.9 % Extraction speed 8.5 X Track quality 100.0 % Test CRC 5BA9A37D Copy CRC 5BA9A37D Accurately ripped (confidence 2) [ED926EC5] (AR v1) Copy OK

Track 15

Filename C:\Music\15 - Josh Rouse - Sparrows Over Birminhan.wav

Peak level 89.9 % Extraction speed 8.7 X Track quality 100.0 % Test CRC 8F1703EF Copy CRC 8F1703EF Accurately ripped (confidence 2) [16B16870] (AR v1) Copy OK

Track 16

Filename C:\Music\16 - Paul Haslinger - BankMeltdown.wav

Peak level 89.9 % Extraction speed 8.1 X Track quality 100.0 % Test CRC CCB9B7F3 Copy CRC CCB9B7F3 Accurately ripped (confidence 2) [B00D2652] (AR v1) Copy OK

Track 17

Filename C:\Music\17 - Ralph Myerz And The Jack Herren Band - Think Twice.wav

Peak level 89.9 % Extraction speed 9.4 X Track quality 100.0 % Test CRC B42D4441 Copy CRC B42D4441 Accurately ripped (confidence 2) [C6CA8A60] (AR v1) Copy OK

Track 18

Filename C:\Music\18 - Lynyrd Skynyrd - Sweet Home Alabama.wav

Peak level 98.9 % Extraction speed 9.4 X Track quality 100.0 % Test CRC 9BD3CA40 Copy CRC 9BD3CA40 Accurately ripped (confidence 2) [691169D8] (AR v1) Copy OK

Track 19

Filename C:\Music\19 - Paul Haslinger - The End.wav

Peak level 90.9 % Extraction speed 8.7 X Track quality 100.0 % Test CRC F9DF54C5 Copy CRC F9DF54C5 Accurately ripped (confidence 2) [DA3383EA] (AR v1) Copy OK

18 track(s) accurately ripped 1 track(s) could not be verified as accurate

Some tracks could not be verified as accurate

No errors occurred

End of status report

==== Log checksum 0A6EAC893A17F7BF802BF42D0DED2B8E4BEEC46CFEF3A20AA3040EA3D8365829 ====
 
REM GENRE SoundtrackREM DATE 2004REM DISCID 1C114613REM COMMENT "ExactAudioCopy v1.0b3"PERFORMER ""TITLE "The Girl Next Door"FILE "01 - Paul Haslinger - The Plan.wav" WAVE TRACK 01 AUDIO TITLE "The Plan" PERFORMER "Paul Haslinger" INDEX 01 00:00:00FILE "02 - Filter - Take A Picture.wav" WAVE TRACK 02 AUDIO TITLE "Take A Picture" PERFORMER "Filter" INDEX 01 00:00:00FILE "03 - Thunderclap Newman - Something In The Air.wav" WAVE TRACK 03 AUDIO TITLE "Something In The Air" PERFORMER "Thunderclap Newman" INDEX 01 00:00:00FILE "04 - Paul Haslinger - Peeping Matt.wav" WAVE TRACK 04 AUDIO TITLE "Peeping Matt" PERFORMER "Paul Haslinger" INDEX 01 00:00:00FILE "05 - Pornosonic - Dick Dagger's Theme.wav" WAVE TRACK 05 AUDIO TITLE "Dick Dagger's Theme" PERFORMER "Pornosonic" INDEX 01 00:00:00FILE "06 - Monster Magnet - Dopes To Infinity.wav" WAVE TRACK 06 AUDIO TITLE "Dopes To Infinity" PERFORMER "Monster Magnet" INDEX 01 00:00:00FILE "07 - Paul Haslinger - Carpe Beachum.wav" WAVE TRACK 07 AUDIO TITLE "Carpe Beachum" PERFORMER "Paul Haslinger" INDEX 01 00:00:00FILE "08 - Fantastic Plastic Machine - Electric Lady Land.wav" WAVE TRACK 08 AUDIO TITLE "Electric Lady Land" PERFORMER "Fantastic Plastic Machine" INDEX 01 00:00:00FILE "09 - Youth Of Today - Break Down The Walls.wav" WAVE TRACK 09 AUDIO TITLE "Break Down The Walls" PERFORMER "Youth Of Today" INDEX 01 00:00:00FILE "10 - Harry Nilsson - Jump Into The Fire.wav" WAVE TRACK 10 AUDIO TITLE "Jump Into The Fire" PERFORMER "Harry Nilsson" INDEX 01 00:00:00FILE "11 - Sneaker Pimps - Spin Spin Sugar (Radio Edit).wav" WAVE TRACK 11 AUDIO TITLE "Spin Spin Sugar (Radio Edit)" PERFORMER "Sneaker Pimps" INDEX 01 00:00:00FILE "12 - Methods of Mayhem - Get Naked.wav" WAVE TRACK 12 AUDIO TITLE "Get Naked" PERFORMER "Methods of Mayhem" INDEX 01 00:00:00FILE "13 - Echo and the Bunnymen - The Killing Moon.wav" WAVE TRACK 13 AUDIO TITLE "The Killing Moon" PERFORMER "Echo and the Bunnymen" INDEX 01 00:00:00FILE "14 - Pep Defux - Big Muff.wav" WAVE TRACK 14 AUDIO TITLE "Big Muff" PERFORMER "Pep Defux" INDEX 01 00:00:00FILE "15 - Josh Rouse - Sparrows Over Birminhan.wav" WAVE TRACK 15 AUDIO TITLE "Sparrows Over Birminhan" PERFORMER "Josh Rouse" INDEX 01 00:00:00FILE "16 - Paul Haslinger - BankMeltdown.wav" WAVE TRACK 16 AUDIO TITLE "BankMeltdown" PERFORMER "Paul Haslinger" INDEX 01 00:00:00FILE "17 - Ralph Myerz And The Jack Herren Band - Think Twice.wav" WAVE TRACK 17 AUDIO TITLE "Think Twice" PERFORMER "Ralph Myerz And The Jack Herren Band" INDEX 01 00:00:00FILE "18 - Lynyrd Skynyrd - Sweet Home Alabama.wav" WAVE TRACK 18 AUDIO TITLE "Sweet Home Alabama" PERFORMER "Lynyrd Skynyrd" INDEX 01 00:00:00FILE "19 - Paul Haslinger - The End.wav" WAVE TRACK 19 AUDIO TITLE "The End" PERFORMER "Paul Haslinger" INDEX 01 00:00:00
Большинство треков записаны из источников MPEG. Прилагаю результат Audiochecker и один из самых худших спектров.



Вот такие стали выпускать фирменные диски А может быть это специально... типа фишка такая?


Трекер:  [ 02-Фев-2012 21:50 ]

  

Скачать .torrent

Размер .torrent файла 70 KB


Размер: 436 MB
Хэш (hash) релиза: 026cf7b491f0b100a04fe88d568263275437f2fe

Торренты, похожие на Соседка The Girl Next Door скачать торрент

Форум Название Автор Размер S L Добавлен
Саундтреки к фильмам и мультфильмам (mp3) ·· (OST) Соседка / The Girl Next Door - 2004, MP3 (tracks), 320 kbps Galfimbul 179316593171 MB 0 0 1292265777

21:42

13-Дек-10

bot

Топик был перенесен в форум Саундтреки к фильмам и мультфильмам (lossless)

Перенес Galfimbul

Хотите добавить комментарий к записи скачать торрент Соседка The Girl Next Door

!Обратная связь