Скачать через торрент музыку Величайшее чудо The Greatest Miracle бесплатно без регистрации torrent

Если у вас наблюдаются проблемы со скриншотами, переходом по ссылками, скачиванием торрентов - проблемы в блокировщике рекламы AdBlock. #хорошегоДня!


Статистика раздачи
Размер:  232 MB   |    Зарегистрирован:  5 лет 10 месяцев   |    .torrent скачан:  38 раз   |   
Раздают:  1  
   
Загрузка...
 
Автор Сообщение

Galfimbul

avatar Galfimbul


Величайшее чудо / The Greatest Miracle / El Gran Milagro
Жанр: Score
Композитор: Mark McKenzie
Год выпуска диска: 2011
Страна-производитель диска: USA
Аудиокодек: FLAC (*.flac)
Тип рипа: tracks+.cue
Битрейт аудио: lossless
Продолжительность: 52:20
Источник: e2dk

Треклист:
[07:32] 01. The Greatest Miracle Prelude
[02:38] 02. Call of the Spirit
[02:22] 03. Entering the Cathedral
[05:34] 04. Angels, Demons and prayer
[03:14] 05. Reclaiming Faith
[01:38] 06. Benedictus Deus
[01:17] 07. You'll See
[02:27] 08. Offerings
[01:43] 09. Ask For What you Want
[03:35] 10. I Miss You
[04:47] 11. Ultimate Love
[03:05] 12. A Clean Soul
[04:05] 13. Go In Peace
[02:36] 14. That Beautiful Smile
[01:54] 15. Ascension, Gloria Patri
[01:49] 16. Pictures With Black Bow (bonus)
[01:56] 17. Bus Accident (bonus)
 
Exact Audio Copy V0.99 prebeta 5 from 4. May 2009

EAC extraction logfile from 23. October 2011, 17:49

Mark McKenzie / The Greatest Miracle

Used drive : ATAPI DVD A DH16AASH Adapter: 2 ID: 1

Read mode : SecureUtilize accurate stream : YesDefeat audio cache : YesMake use of C2 pointers : No

Read offset correction : 6Overread into Lead-In and Lead-Out : NoFill up missing offset samples with silence : YesDelete leading and trailing silent blocks : NoNull samples used in CRC calculations : YesUsed interface : Native Win32 interface for Win NT & 2000Gap handling : Appended to previous track

Used output format : User Defined EncoderSelected bitrate : 768 kBit/sQuality : HighAdd ID3 tag : NoCommand line compressor : C:\Program Files (x86)\Exact Audio Copy\FLAC\FLAC.EXEAdditional command line options : -6 -V -T "ARTIST=%a" -T "TITLE=%t" -T "ALBUM=%g" -T "DATE=%y" -T "TRACKNUMBER=%n" -T "GENRE=%m" -T "COMMENT=%e" %s -o %d

TOC of the extracted CD

Track | Start | Length | Start sector | End sector --------------------------------------------------------- 1 | 0:00.00 | 7:32.55 | 0 | 33954 2 | 7:32.55 | 2:38.40 | 33955 | 45844 3 | 10:11.20 | 2:22.51 | 45845 | 56545 4 | 12:33.71 | 5:34.48 | 56546 | 81643 5 | 18:08.44 | 3:14.05 | 81644 | 96198 6 | 21:22.49 | 1:38.61 | 96199 | 103609 7 | 23:01.35 | 1:17.11 | 103610 | 109395 8 | 24:18.46 | 2:27.26 | 109396 | 120446 9 | 26:45.72 | 1:43.72 | 120447 | 128243 10 | 28:29.69 | 3:35.48 | 128244 | 144416 11 | 32:05.42 | 4:47.49 | 144417 | 165990 12 | 36:53.16 | 3:05.45 | 165991 | 179910 13 | 39:58.61 | 4:05.22 | 179911 | 198307 14 | 44:04.08 | 2:36.52 | 198308 | 210059 15 | 46:40.60 | 1:54.11 | 210060 | 218620 16 | 48:34.71 | 1:49.20 | 218621 | 226815 17 | 50:24.16 | 1:56.13 | 226816 | 235528

Track 1

Filename C:\Users\Chris\Documents\The Greatest Miracle\(01) The Greatest Miracle Prelude.wav

Pre-gap length 0:00:02.00

Peak level 96.6 % Track quality 100.0 % Test CRC 5BA2B60A Copy CRC 5BA2B60A Track not present in AccurateRip database Copy OK

Track 2

Filename C:\Users\Chris\Documents\The Greatest Miracle\(02) Call of the Spirit.wav

Pre-gap length 0:00:02.00

Peak level 75.0 % Track quality 100.0 % Test CRC BC42F8F8 Copy CRC BC42F8F8 Track not present in AccurateRip database Copy OK

Track 3

Filename C:\Users\Chris\Documents\The Greatest Miracle\(03) Entering the Cathedral.wav

Pre-gap length 0:00:02.00

Peak level 94.2 % Track quality 100.0 % Test CRC E24B3523 Copy CRC E24B3523 Track not present in AccurateRip database Copy OK

Track 4

Filename C:\Users\Chris\Documents\The Greatest Miracle\(04) Angels, Demons and prayer.wav

Pre-gap length 0:00:02.00

Peak level 96.6 % Track quality 100.0 % Test CRC 3EA07779 Copy CRC 3EA07779 Track not present in AccurateRip database Copy OK

Track 5

Filename C:\Users\Chris\Documents\The Greatest Miracle\(05) Reclaiming Faith.wav

Pre-gap length 0:00:02.00

Peak level 33.3 % Track quality 100.0 % Test CRC 90677840 Copy CRC 90677840 Track not present in AccurateRip database Copy OK

Track 6

Filename C:\Users\Chris\Documents\The Greatest Miracle\(06) Benedictus Deus.wav

Pre-gap length 0:00:02.00

Peak level 96.6 % Track quality 100.0 % Test CRC AA8F0E34 Copy CRC AA8F0E34 Track not present in AccurateRip database Copy OK

Track 7

Filename C:\Users\Chris\Documents\The Greatest Miracle\(07) You'll See.wav

Pre-gap length 0:00:02.00

Peak level 29.0 % Track quality 100.0 % Test CRC DC3D4B97 Copy CRC DC3D4B97 Track not present in AccurateRip database Copy OK

Track 8

Filename C:\Users\Chris\Documents\The Greatest Miracle\(08) Offerings.wav

Pre-gap length 0:00:02.00

Peak level 96.6 % Track quality 100.0 % Test CRC 080D7764 Copy CRC 080D7764 Track not present in AccurateRip database Copy OK

Track 9

Filename C:\Users\Chris\Documents\The Greatest Miracle\(09) Ask For What you Want.wav

Pre-gap length 0:00:02.00

Peak level 65.2 % Track quality 99.8 % Test CRC C5E1D732 Copy CRC C5E1D732 Track not present in AccurateRip database Copy OK

Track 10

Filename C:\Users\Chris\Documents\The Greatest Miracle\(10) I Miss You.wav

Pre-gap length 0:00:02.00

Peak level 96.6 % Track quality 100.0 % Test CRC C2B2F518 Copy CRC C2B2F518 Track not present in AccurateRip database Copy OK

Track 11

Filename C:\Users\Chris\Documents\The Greatest Miracle\(11) Ultimate Love.wav

Pre-gap length 0:00:02.00

Peak level 94.3 % Track quality 100.0 % Test CRC 270D1603 Copy CRC 270D1603 Track not present in AccurateRip database Copy OK

Track 12

Filename C:\Users\Chris\Documents\The Greatest Miracle\(12) A Clean Soul.wav

Pre-gap length 0:00:02.00

Peak level 88.9 % Track quality 99.9 % Test CRC 8C0AFA3B Copy CRC 8C0AFA3B Track not present in AccurateRip database Copy OK

Track 13

Filename C:\Users\Chris\Documents\The Greatest Miracle\(13) Go In Peace.wav

Pre-gap length 0:00:02.00

Peak level 96.6 % Track quality 100.0 % Test CRC 1BE94C84 Copy CRC 1BE94C84 Track not present in AccurateRip database Copy OK

Track 14

Filename C:\Users\Chris\Documents\The Greatest Miracle\(14) That Beautiful Smile.wav

Pre-gap length 0:00:02.00

Peak level 42.2 % Track quality 100.0 % Test CRC 35A25B72 Copy CRC 35A25B72 Track not present in AccurateRip database Copy OK

Track 15

Filename C:\Users\Chris\Documents\The Greatest Miracle\(15) Ascension, Gloria Patri.wav

Pre-gap length 0:00:02.00

Peak level 96.6 % Track quality 100.0 % Test CRC D13F89CD Copy CRC D13F89CD Track not present in AccurateRip database Copy OK

Track 16

Filename C:\Users\Chris\Documents\The Greatest Miracle\(16) Pictures With Black Bow (bonus).wav

Pre-gap length 0:00:08.00

Peak level 96.6 % Track quality 99.9 % Test CRC B2160FDD Copy CRC B2160FDD Track not present in AccurateRip database Copy OK

Track 17

Filename C:\Users\Chris\Documents\The Greatest Miracle\(17) Bus Accident (bonus).wav

Pre-gap length 0:00:02.00

Peak level 96.6 % Track quality 100.0 % Test CRC 8AAFD6B8 Copy CRC 8AAFD6B8 Track not present in AccurateRip database Copy OK

None of the tracks are present in the AccurateRip database

No errors occurred

End of status report
 
REM GENRE SoundtrackREM DATE 2011REM DISCID D30C4411REM COMMENT "ExactAudioCopy v0.99pb5"PERFORMER "Mark McKenzie"TITLE "The Greatest Miracle"FILE "01 The Greatest Miracle Prelude.wav" WAVE TRACK 01 AUDIO TITLE "The Greatest Miracle Prelude" PERFORMER "Mark McKenzie" FLAGS DCP INDEX 01 00:00:00 TRACK 02 AUDIO TITLE "Call of the Spirit" PERFORMER "Mark McKenzie" FLAGS DCP INDEX 00 07:30:55FILE "02 Call of the Spirit.wav" WAVE INDEX 01 00:00:00 TRACK 03 AUDIO TITLE "Entering the Cathedral" PERFORMER "Mark McKenzie" FLAGS DCP INDEX 00 02:36:40FILE "03 Entering the Cathedral.wav" WAVE INDEX 01 00:00:00 TRACK 04 AUDIO TITLE "Angels, Demons and prayer" PERFORMER "Mark McKenzie" FLAGS DCP INDEX 00 02:20:51FILE "04 Angels, Demons and prayer.wav" WAVE INDEX 01 00:00:00 TRACK 05 AUDIO TITLE "Reclaiming Faith" PERFORMER "Mark McKenzie" FLAGS DCP INDEX 00 05:32:48FILE "05 Reclaiming Faith.wav" WAVE INDEX 01 00:00:00 TRACK 06 AUDIO TITLE "Benedictus Deus" PERFORMER "Mark McKenzie" FLAGS DCP INDEX 00 03:12:05FILE "06 Benedictus Deus.wav" WAVE INDEX 01 00:00:00 TRACK 07 AUDIO TITLE "You'll See" PERFORMER "Mark McKenzie" FLAGS DCP INDEX 00 01:36:61FILE "07 You'll See.wav" WAVE INDEX 01 00:00:00 TRACK 08 AUDIO TITLE "Offerings" PERFORMER "Mark McKenzie" FLAGS DCP INDEX 00 01:15:11FILE "08 Offerings.wav" WAVE INDEX 01 00:00:00 TRACK 09 AUDIO TITLE "Ask For What you Want" PERFORMER "Mark McKenzie" FLAGS DCP INDEX 00 02:25:26FILE "09 Ask For What you Want.wav" WAVE INDEX 01 00:00:00 TRACK 10 AUDIO TITLE "I Miss You" PERFORMER "Mark McKenzie" FLAGS DCP INDEX 00 01:41:72FILE "10 I Miss You.wav" WAVE INDEX 01 00:00:00 TRACK 11 AUDIO TITLE "Ultimate Love" PERFORMER "Mark McKenzie" FLAGS DCP INDEX 00 03:33:48FILE "11 Ultimate Love.wav" WAVE INDEX 01 00:00:00 TRACK 12 AUDIO TITLE "A Clean Soul" PERFORMER "Mark McKenzie" FLAGS DCP INDEX 00 04:45:49FILE "12 A Clean Soul.wav" WAVE INDEX 01 00:00:00 TRACK 13 AUDIO TITLE "Go In Peace" PERFORMER "Mark McKenzie" FLAGS DCP INDEX 00 03:03:45FILE "13 Go In Peace.wav" WAVE INDEX 01 00:00:00 TRACK 14 AUDIO TITLE "That Beautiful Smile" PERFORMER "Mark McKenzie" FLAGS DCP INDEX 00 04:03:22FILE "14 That Beautiful Smile.wav" WAVE INDEX 01 00:00:00 TRACK 15 AUDIO TITLE "Ascension, Gloria Patri" PERFORMER "Mark McKenzie" FLAGS DCP INDEX 00 02:34:52FILE "15 Ascension, Gloria Patri.wav" WAVE INDEX 01 00:00:00 TRACK 16 AUDIO TITLE "Pictures With Black Bow (bonus)" PERFORMER "Mark McKenzie" FLAGS DCP INDEX 00 01:46:11FILE "16 Pictures With Black Bow (bonus).wav" WAVE INDEX 01 00:00:00 TRACK 17 AUDIO TITLE "Bus Accident (bonus)" PERFORMER "Mark McKenzie" FLAGS DCP INDEX 00 01:47:20FILE "17 Bus Accident (bonus).wav" WAVE INDEX 01 00:00:00


Трекер:  [ 02-Фев-2012 21:49 ]

  

Скачать .torrent

Размер .torrent файла 19 KB


Размер: 232 MB
Хэш (hash) релиза: 6f6e69ea99924522e8ae428b9116f7149644ba72

bot

Топик был перенесен в форум Саундтреки к фильмам и мультфильмам (lossless)

Перенес Galfimbul

Хотите добавить комментарий к записи скачать торрент Величайшее чудо The Greatest Miracle

!Обратная связь