Скачать через торрент музыку Голубые береты - Коллекция 7 CD - 2001-2009, APE, FLAC бесплатно без регистрации torrent

Если у вас наблюдаются проблемы со скриншотами, переходом по ссылками, скачиванием торрентов - проблемы в блокировщике рекламы AdBlock. #хорошегоДня!


Статистика раздачи
Размер:  2.51 GB   |    Зарегистрирован:  5 лет 10 месяцев   |    .torrent скачан:  257 раз   |   
Раздают:  1  
   
Загрузка...
 
Автор Сообщение

L


Голубые береты / Коллекция 7 CD
Жанр: Военная песня
Страна-производитель диска: Россия
Год издания диска: 2001-2009
Аудио кодек: APE, FLAC
Тип рипа: image+.cue
Битрейт аудио: lossless
Источник (релизер): Из личной коллекции
Наличие сканов в содержимом раздачи: да, 600dpi
Официальный сайт:
http://www.berets.ru/

Доп. информация:
Выражаю благодарность gravia29 за предоставленный альбом - "Память (Избранное)"
1. Голубые береты (2:53)
2. Разве это было зря? (3:50)
3. Память (3:59)
4. Ордена не продаются (1:56)
5. Братан (4:33)
6. Погоны России (4:13)
7. Улетали дембеля (2:52)
8. Играй,маэстро (4:00)
9. Расскажи,отец,расскажи (4:36)
10. Синева (3:01)
11. Бойцам "Альфы" (4:19)
12. Где-то рядом они (3:55)
13. Границы (4:05)
14. Новый год (3:40)
15. Помнишь,мама (4:45)
16. Падала синяя птица (4:03)
17. Старый мост (3:45)
18. Если не мы,то кто? (5:30)
19. Дороги (4:18)
20. Не сжигай мостов (3:45)
 
Exact Audio Copy V0.99 prebeta 4 from 23. January 2008

Отчёт EAC об извлечении, выполненном 5. апреля 2009, 8:57

Голубые Береты / Память. Избранное

Дисковод: ASUS DRW-2014L1 Adapter: 1 ID: 0

Режим чтения : ДостоверностьИспользование точного потока : ДаОтключение кэша аудио : ДаИспользование указателей C2 : Нет

Коррекция смещения при чтении : 6Способность читать области Lead-in и Lead-out : НетЗаполнение пропущенных сэмплов тишиной : ДаУдаление блоков с тишиной в начале и конце : НетПри вычислениях CRC использовались нулевые сэмплы : ДаИнтерфейс : Встроенный Win32-интерфейс для Win NT/2000

Выходной формат : Внутренние WAV-операцииФормат сэмплов : 44.100 Гц; 16 бит; стерео

TOC извлечённого CD

Трек | Старт | Длительность | Начальный сектор | Конечный сектор --------------------------------------------------------------------- 1 | 0:00.00 | 2:53.10 | 0 | 12984 2 | 2:53.10 | 3:49.49 | 12985 | 30208 3 | 6:42.59 | 3:58.61 | 30209 | 48119 4 | 10:41.45 | 1:56.22 | 48120 | 56841 5 | 12:37.67 | 4:33.01 | 56842 | 77317 6 | 17:10.68 | 4:12.61 | 77318 | 96278 7 | 21:23.54 | 2:52.12 | 96279 | 109190 8 | 24:15.66 | 3:59.40 | 109191 | 127155 9 | 28:15.31 | 4:35.54 | 127156 | 147834 10 | 32:51.10 | 3:00.68 | 147835 | 161402 11 | 35:52.03 | 4:18.74 | 161403 | 180826 12 | 40:11.02 | 3:55.06 | 180827 | 198457 13 | 44:06.08 | 4:05.03 | 198458 | 216835 14 | 48:11.11 | 3:40.24 | 216836 | 233359 15 | 51:51.35 | 4:45.07 | 233360 | 254741 16 | 56:36.42 | 4:02.47 | 254742 | 272938 17 | 60:39.14 | 3:49.11 | 272939 | 290124 18 | 64:28.25 | 5:30.33 | 290125 | 314907 19 | 69:58.58 | 4:17.50 | 314908 | 334232 20 | 74:16.33 | 3:45.26 | 334233 | 351133

Характеристики диапазона извлечения и сообщения об ошибках

Выбранный диапазон

Имя файла C:\Users\Артём\Music\Голубые береты\Голубые Береты - Память. Избранное.wav

Пиковый уровень 96.6 % Качество диапазона 99.9 % CRC копии F0085D8C Копирование... OK

Ошибок не произошло

Конец отчёта
01 - Знамя гвардейского полка (4:08)
02 - Вы нас туда послали (3:51)
03 - Пароль-Афган (3:07)
04 - Раненый город (3:46)
05 - Солдат (2:40)
06 - Вы рядом с нами (3:54)
07 - Грустит настольный календарь (4:49)
08 - Россия (2:50)
09 - Небо (3:16)
10 - Две вертушки на Моздок (2:24)
11 - Полосатая натура (3:19)
12 - Я видел сон (2:49)
13 - Позвони,друг (3:39)
14 - Синева (2:57)
Доп. информация: + бонус видео"Вы рядом с нами"
 
ОбщееПолное имя : D:\Виталя\Моя музыка\1.Шансон\Военные\Альбомы\Голубые береты\Голубые Береты - Раненый Город\Data\video.mpgФормат : MPEG-PSРазмер файла : 34,8 МегабайтПродолжительность : 3 м. 58 с.Общий поток : 1223 Кбит/сек

ВидеоИдентификатор : 224 (0xE0)Формат : MPEG VideoВерсия формата : Version 1Параметры матрицы формата : По умолчаниюПродолжительность : 3 м. 58 с.Вид битрейта : ПостоянныйБитрейт : 1015 Кбит/секНоминальный битрейт : 1024 Кбит/секШирина : 400 пикс.Высота : 320 пикс.Соотношение кадра : 5/4Частота кадров : 25,000 кадр/секТип развёртки : ПрогрессивнаяБит/(Пиксели*Кадры) : 0.317Размер потока : 28,8 Мегабайт (83%)

АудиоИдентификатор : 192 (0xC0)Формат : MPEG AudioВерсия формата : Version 1Профайл формата : Layer 2Продолжительность : 3 м. 58 с.Вид битрейта : ПостоянныйБитрейт : 160 Кбит/секКанал(ы) : 2 канала(ов)Частота : 44,1 КГцРазрешение : 16 битРазмер потока : 4,55 Мегабайт (13%)
 
Exact Audio Copy V0.99 prebeta 4 from 23. January 2008

Отчёт EAC об извлечении, выполненном 1. февраля 2009, 12:21

Голубые Береты / Раненый Город

Дисковод: ASUS DRW-1814BL Adapter: 4 ID: 0

Режим чтения : ДостоверностьИспользование точного потока : ДаОтключение кэша аудио : ДаИспользование указателей C2 : Нет

Коррекция смещения при чтении : 6Способность читать области Lead-in и Lead-out : НетЗаполнение пропущенных сэмплов тишиной : ДаУдаление блоков с тишиной в начале и конце : НетПри вычислениях CRC использовались нулевые сэмплы : ДаИнтерфейс : Установленный внешний ASPI-интерфейс

Выходной формат : Внутренние WAV-операцииФормат сэмплов : 44.100 Гц; 16 бит; стерео

TOC извлечённого CD

Трек | Старт | Длительность | Начальный сектор | Конечный сектор --------------------------------------------------------------------- 1 | 0:00.00 | 4:08.26 | 0 | 18625 2 | 4:08.26 | 3:51.38 | 18626 | 35988 3 | 7:59.64 | 3:07.63 | 35989 | 50076 4 | 11:07.52 | 3:46.52 | 50077 | 67078 5 | 14:54.29 | 2:40.70 | 67079 | 79148 6 | 17:35.24 | 3:54.57 | 79149 | 96755 7 | 21:30.06 | 4:49.63 | 96756 | 118493 8 | 26:19.69 | 2:50.08 | 118494 | 131251 9 | 29:10.02 | 3:16.28 | 131252 | 145979 10 | 32:26.30 | 2:24.36 | 145980 | 156815 11 | 34:50.66 | 3:19.73 | 156816 | 171813 12 | 38:10.64 | 2:49.25 | 171814 | 184513 13 | 41:00.14 | 3:39.59 | 184514 | 200997 14 | 44:39.73 | 2:57.69 | 200998 | 214341

Характеристики диапазона извлечения и сообщения об ошибках

Выбранный диапазон

Имя файла C:\Documents and Settings\Виталий\Рабочий стол\mp3\Голубые Береты - Раненый Город\Голубые Береты - Раненый Город.wav

Пиковый уровень 100.0 % Качество диапазона 100.0 % CRC копии 53F9B700 Копирование... OK

Ошибок не произошло

AccurateRip: сводка

Трек 1 нет в базе данныхТрек 2 нет в базе данныхТрек 3 нет в базе данныхТрек 4 нет в базе данныхТрек 5 нет в базе данныхТрек 6 нет в базе данныхТрек 7 нет в базе данныхТрек 8 нет в базе данныхТрек 9 нет в базе данныхТрек 10 нет в базе данныхТрек 11 нет в базе данныхТрек 12 нет в базе данныхТрек 13 нет в базе данныхТрек 14 нет в базе данных

Ни одного трека нет в базе AccurateRip

Конец отчёта
01. Вот и кончилась война (3:47)
02. 13 300 (4:43)
03. Вертолётчикам (2:54)
04. Кино (3:43)
05. Совесть (3:49)
06. Синяя река (3:59)
07. Боевым друзьям (3:15)
08. Поступью (2:57)
09. Десантирование (3:57)
10. Памяти А.Костенко (3:07)
11. Мы будем жить (3:45)
12. Медсёстры (3:56)
13. Песня о друге (3:44)
14. Нам снится Афган (3:46)
15. Проснись,человек (4:13)
 
Exact Audio Copy V0.99 prebeta 4 from 23. January 2008

Отчёт EAC об извлечении, выполненном 6. февраля 2009, 12:36

Голубые береты / Вот и кончилась война

Дисковод: ASUS DRW-1814BL Adapter: 4 ID: 0

Режим чтения : ДостоверностьИспользование точного потока : ДаОтключение кэша аудио : ДаИспользование указателей C2 : Нет

Коррекция смещения при чтении : 6Способность читать области Lead-in и Lead-out : НетЗаполнение пропущенных сэмплов тишиной : ДаУдаление блоков с тишиной в начале и конце : НетПри вычислениях CRC использовались нулевые сэмплы : ДаИнтерфейс : Установленный внешний ASPI-интерфейс

Выходной формат : Внутренние WAV-операцииФормат сэмплов : 44.100 Гц; 16 бит; стерео

TOC извлечённого CD

Трек | Старт | Длительность | Начальный сектор | Конечный сектор --------------------------------------------------------------------- 1 | 0:00.00 | 3:47.18 | 0 | 17042 2 | 3:47.18 | 4:43.51 | 17043 | 38318 3 | 8:30.69 | 2:54.04 | 38319 | 51372 4 | 11:24.73 | 3:43.22 | 51373 | 68119 5 | 15:08.20 | 3:49.59 | 68120 | 85353 6 | 18:58.04 | 3:59.22 | 85354 | 103300 7 | 22:57.26 | 3:15.34 | 103301 | 117959 8 | 26:12.60 | 2:57.49 | 117960 | 131283 9 | 29:10.34 | 3:57.03 | 131284 | 149061 10 | 33:07.37 | 3:07.40 | 149062 | 163126 11 | 36:15.02 | 3:45.47 | 163127 | 180048 12 | 40:00.49 | 3:56.40 | 180049 | 197788 13 | 43:57.14 | 3:44.68 | 197789 | 214656 14 | 47:42.07 | 3:46.15 | 214657 | 231621 15 | 51:28.22 | 4:13.71 | 231622 | 250667

Характеристики диапазона извлечения и сообщения об ошибках

Выбранный диапазон

Имя файла D:\Виталя\Моя музыка\1.Шансон\Военные\Альбомы\ГОЛУБЫЕ БЕРЕТЫ\Вот и кончилась война(320)\Голубые береты - Вот и кончилась война.wav

Пиковый уровень 99.2 % Качество диапазона 99.9 % CRC копии 41937D67 Копирование... OK

Ошибок не произошло

AccurateRip: сводка

Трек 1 нет в базе данныхТрек 2 нет в базе данныхТрек 3 нет в базе данныхТрек 4 нет в базе данныхТрек 5 нет в базе данныхТрек 6 нет в базе данныхТрек 7 нет в базе данныхТрек 8 нет в базе данныхТрек 9 нет в базе данныхТрек 10 нет в базе данныхТрек 11 нет в базе данныхТрек 12 нет в базе данныхТрек 13 нет в базе данныхТрек 14 нет в базе данныхТрек 15 нет в базе данных

Ни одного трека нет в базе AccurateRip

Конец отчёта
01. Голубые береты (2:53)
02. Ордена не продаются (1:56)
03. Связистам (4:05)
04. У трапа самолёта (2:27)
05. Груз 200 (4:00)
06. Медсёстрам (2:48)
07. Маэстро (3:58)
08. Письмо к матери (3:23)
09. Серебристый самолёт (2:47)
10. Разговор с портретом (2:06)
11. 27 апреля (3:15)
12. Война - не прогулка (3:59)
13. Дембеля (2:51)
14. М.Ф.Маргелову (4:05)
15. Меня с детства учили (новая песня) (2:43)
 
Exact Audio Copy V0.99 prebeta 4 from 23. January 2008

Отчёт EAC об извлечении, выполненном 3. февраля 2009, 12:21

Голубые береты / Грустит настольный календарь

Дисковод: ASUS DRW-1814BL Adapter: 4 ID: 0

Режим чтения : ДостоверностьИспользование точного потока : ДаОтключение кэша аудио : ДаИспользование указателей C2 : Нет

Коррекция смещения при чтении : 6Способность читать области Lead-in и Lead-out : НетЗаполнение пропущенных сэмплов тишиной : ДаУдаление блоков с тишиной в начале и конце : НетПри вычислениях CRC использовались нулевые сэмплы : ДаИнтерфейс : Установленный внешний ASPI-интерфейс

Выходной формат : Внутренние WAV-операцииФормат сэмплов : 44.100 Гц; 16 бит; стерео

TOC извлечённого CD

Трек | Старт | Длительность | Начальный сектор | Конечный сектор --------------------------------------------------------------------- 1 | 0:00.00 | 2:53.65 | 0 | 13039 2 | 2:53.65 | 1:56.05 | 13040 | 21744 3 | 4:49.70 | 4:05.63 | 21745 | 40182 4 | 8:55.58 | 2:27.34 | 40183 | 51241 5 | 11:23.17 | 4:00.00 | 51242 | 69241 6 | 15:23.17 | 2:48.41 | 69242 | 81882 7 | 18:11.58 | 3:58.29 | 81883 | 99761 8 | 22:10.12 | 3:23.29 | 99762 | 115015 9 | 25:33.41 | 2:47.74 | 115016 | 127614 10 | 28:21.40 | 2:06.60 | 127615 | 137124 11 | 30:28.25 | 3:15.46 | 137125 | 151795 12 | 33:43.71 | 3:59.65 | 151796 | 169785 13 | 37:43.61 | 2:51.07 | 169786 | 182617 14 | 40:34.68 | 4:05.00 | 182618 | 200992 15 | 44:39.68 | 2:43.50 | 200993 | 213267

Характеристики диапазона извлечения и сообщения об ошибках

Выбранный диапазон

Имя файла C:\Documents and Settings\Виталий\Рабочий стол\mp3\Голубые береты - Грустит настольный календарь.wav

Пиковый уровень 99.9 % Качество диапазона 99.9 % CRC копии C718CD40 Копирование... OK

Ошибок не произошло

AccurateRip: сводка

Трек 1 нет в базе данныхТрек 2 нет в базе данныхТрек 3 нет в базе данныхТрек 4 нет в базе данныхТрек 5 нет в базе данныхТрек 6 нет в базе данныхТрек 7 нет в базе данныхТрек 8 нет в базе данныхТрек 9 нет в базе данныхТрек 10 нет в базе данныхТрек 11 нет в базе данныхТрек 12 нет в базе данныхТрек 13 нет в базе данныхТрек 14 нет в базе данныхТрек 15 нет в базе данных

Ни одного трека нет в базе AccurateRip

Конец отчёта
1. Русь (4:53)
2. Помнишь,мама (4:46)
3. Рак души (6:01)
4. Новый день (5:34)
5. Спасибо,господин Президент (7:25)
6. Разве это было зря (3:50)
7. Фотография (3:53)
8. Погоны России (4:13)
9. Дороги (4:18)
10. Экипажу "561" (4:01)
11. Я не верю (4:14)
 
Exact Audio Copy V1.0 beta 1 from 15. November 2010

Отчёт EAC об извлечении, выполненном 19. декабря 2010, 17:31

Голубые береты / От войны до войны

Дисковод: Optiarc DVD RW AD-7200S Adapter: 4 ID: 0

Режим чтения : ДостоверностьИспользование точного потока : ДаОтключение кэша аудио : ДаИспользование указателей C2 : Нет

Коррекция смещения при чтении : 48Способность читать области Lead-in и Lead-out : НетЗаполнение пропущенных сэмплов тишиной : ДаУдаление блоков с тишиной в начале и конце : НетПри вычислениях CRC использовались нулевые сэмплы : ДаИнтерфейс : Установленный внешний ASPI-интерфейс

Выходной формат : Внутренние WAV-операцииФормат сэмплов : 44.100 Гц; 16 бит; стерео

TOC извлечённого CD

Трек | Старт | Длительность | Начальный сектор | Конечный сектор --------------------------------------------------------------------- 1 | 0:00.00 | 4:53.09 | 0 | 21983 2 | 4:53.09 | 4:46.05 | 21984 | 43438 3 | 9:39.14 | 6:01.06 | 43439 | 70519 4 | 15:40.20 | 5:34.09 | 70520 | 95578 5 | 21:14.29 | 7:25.15 | 95579 | 128968 6 | 28:39.44 | 3:50.10 | 128969 | 146228 7 | 32:29.54 | 3:53.04 | 146229 | 163707 8 | 36:22.58 | 4:12.47 | 163708 | 182654 9 | 40:35.30 | 4:17.74 | 182655 | 202003 10 | 44:53.29 | 4:01.29 | 202004 | 220107 11 | 48:54.58 | 4:14.24 | 220108 | 239181

Характеристики диапазона извлечения и сообщения об ошибках

Выбранный диапазон

Имя файла D:\Виталя\Моя музыка\1.Шансон\Военные\Альбомы\ГОЛУБЫЕ БЕРЕТЫ\Голубые Береты - От войны до войны\Голубые береты - От войны до войны.wav

Пиковый уровень 98.8 %0.3 X Качество диапазона 100.0 % CRC копии DEA088A0 Копирование... OK

Ошибок не произошло

AccurateRip: сводка

Трек 1 нет в базе данныхТрек 2 нет в базе данныхТрек 3 нет в базе данныхТрек 4 нет в базе данныхТрек 5 нет в базе данныхТрек 6 нет в базе данныхТрек 7 нет в базе данныхТрек 8 нет в базе данныхТрек 9 нет в базе данныхТрек 10 нет в базе данныхТрек 11 нет в базе данных

Ни одного трека нет в базе AccurateRip

Конец отчёта

==== 01DF8675850F8D2C9790B9F9F5D1200E963883AABC309512D60AC6738EC47729 ====
01 - Бойцам "Альфы" (4:19)
02 - Старый Ворон (3:48)
03 - Потому что русские мы (3:01)
04 - Память (3:56)
05 - Синева (3:00)
06 - Новый год (3:40)
07 - Размышление офицера у телефона ''горячей линии '' (3:41)
08 - Другу (5:24)
09 - Встреча друзей (3:27)
10 - Ротная песня (3:49)
11 - Братан (4:30)
12 - Не сжигай мосты (3:47)
13 - Дикие гуси (3:54)
14 - Эх,доля... (4:10)
 
Exact Audio Copy V0.99 prebeta 4 from 23. January 2008

Отчёт EAC об извлечении, выполненном 1. февраля 2009, 17:48

Голубые Береты / Эх,Доля...

Дисковод: ASUS DRW-1814BL Adapter: 4 ID: 0

Режим чтения : ДостоверностьИспользование точного потока : ДаОтключение кэша аудио : ДаИспользование указателей C2 : Нет

Коррекция смещения при чтении : 6Способность читать области Lead-in и Lead-out : НетЗаполнение пропущенных сэмплов тишиной : ДаУдаление блоков с тишиной в начале и конце : НетПри вычислениях CRC использовались нулевые сэмплы : ДаИнтерфейс : Установленный внешний ASPI-интерфейс

Выходной формат : Внутренние WAV-операцииФормат сэмплов : 44.100 Гц; 16 бит; стерео

TOC извлечённого CD

Трек | Старт | Длительность | Начальный сектор | Конечный сектор --------------------------------------------------------------------- 1 | 0:00.00 | 4:19.14 | 0 | 19438 2 | 4:19.14 | 3:48.68 | 19439 | 36606 3 | 8:08.07 | 3:01.03 | 36607 | 50184 4 | 11:09.10 | 3:58.67 | 50185 | 68101 5 | 15:08.02 | 3:00.37 | 68102 | 81638 6 | 18:08.39 | 3:40.28 | 81639 | 98166 7 | 21:48.67 | 3:41.65 | 98167 | 114806 8 | 25:30.57 | 5:24.11 | 114807 | 139117 9 | 30:54.68 | 3:27.44 | 139118 | 154686 10 | 34:22.37 | 3:48.71 | 154687 | 171857 11 | 38:11.33 | 4:33.06 | 171858 | 192338 12 | 42:44.39 | 3:47.31 | 192339 | 209394 13 | 46:31.70 | 3:54.28 | 209395 | 226972 14 | 50:26.23 | 4:10.60 | 226973 | 245782 15 | 54:37.08 | 3:30.02 | 245783 | 261534

Характеристики диапазона извлечения и сообщения об ошибках

Выбранный диапазон

Имя файла C:\Documents and Settings\Виталий\Рабочий стол\mp3\Голубые Береты - Эх,Доля....wav

Пиковый уровень 98.8 % Качество диапазона 100.0 % CRC копии F673DE05 Копирование... OK

Ошибок не произошло

AccurateRip: сводка

Трек 1 нет в базе данныхТрек 2 нет в базе данныхТрек 3 нет в базе данныхТрек 4 нет в базе данныхТрек 5 нет в базе данныхТрек 6 нет в базе данныхТрек 7 нет в базе данныхТрек 8 нет в базе данныхТрек 9 нет в базе данныхТрек 10 нет в базе данныхТрек 11 нет в базе данныхТрек 12 нет в базе данныхТрек 13 нет в базе данныхТрек 14 нет в базе данныхТрек 15 нет в базе данных

Ни одного трека нет в базе AccurateRip

Конец отчёта
1. Минное поле (3:05)
2. Старый мост (4:05)
3. Посидим,помолчим,мужики (3:29)
4. Ну как дела (4:25)
5. Русский снег (4:45)
6. Застенчивый рэггей (3:42)
7. В.Ф.Маргелову (4:05)
8. Морпех и десантура (2:54)
9. Синева (3:00)
10. Вальс выпускников - Новосибирцев (3:33)
11. Будет слава нам (3:21)
12. Зимний романс (3:09)
13. Всё будет хорошо! (4:12)
 
Exact Audio Copy V0.99 prebeta 4 from 23. January 2008

Отчёт EAC об извлечении, выполненном 10. ноября 2009, 11:47

Голубые Береты / Минное поле

Дисковод: ASUS DRW-1814BL Adapter: 4 ID: 0

Режим чтения : ДостоверностьИспользование точного потока : ДаОтключение кэша аудио : ДаИспользование указателей C2 : Нет

Коррекция смещения при чтении : 6Способность читать области Lead-in и Lead-out : НетЗаполнение пропущенных сэмплов тишиной : ДаУдаление блоков с тишиной в начале и конце : НетПри вычислениях CRC использовались нулевые сэмплы : ДаИнтерфейс : Установленный внешний ASPI-интерфейс

Выходной формат : Внутренние WAV-операцииФормат сэмплов : 44.100 Гц; 16 бит; стерео

TOC извлечённого CD

Трек | Старт | Длительность | Начальный сектор | Конечный сектор --------------------------------------------------------------------- 1 | 0:00.00 | 3:04.54 | 0 | 13853 2 | 3:04.54 | 4:05.37 | 13854 | 32265 3 | 7:10.16 | 3:29.13 | 32266 | 47953 4 | 10:39.29 | 4:24.47 | 47954 | 67800 5 | 15:04.01 | 4:44.55 | 67801 | 89155 6 | 19:48.56 | 3:42.19 | 89156 | 105824 7 | 23:31.00 | 4:04.52 | 105825 | 124176 8 | 27:35.52 | 2:54.22 | 124177 | 137248 9 | 30:29.74 | 2:59.49 | 137249 | 150722 10 | 33:29.48 | 3:32.46 | 150723 | 166668 11 | 37:02.19 | 3:20.62 | 166669 | 181730 12 | 40:23.06 | 3:09.04 | 181731 | 195909 13 | 43:32.10 | 4:11.67 | 195910 | 214801

Характеристики диапазона извлечения и сообщения об ошибках

Выбранный диапазон

Имя файла D:\Виталя\Моя музыка\1.Шансон\Военные\Альбомы\ГОЛУБЫЕ БЕРЕТЫ\2009 - Минное поле\Голубые Береты - Минное поле.wav

Пиковый уровень 93.4 % Качество диапазона 100.0 % CRC копии 89FF49C3 Копирование... OK

Ошибок не произошло

AccurateRip: сводка

Трек 1 нет в базе данныхТрек 2 нет в базе данныхТрек 3 нет в базе данныхТрек 4 нет в базе данныхТрек 5 нет в базе данныхТрек 6 нет в базе данныхТрек 7 нет в базе данныхТрек 8 нет в базе данныхТрек 9 нет в базе данныхТрек 10 нет в базе данныхТрек 11 нет в базе данныхТрек 12 нет в базе данныхТрек 13 нет в базе данных

Ни одного трека нет в базе AccurateRip

Конец отчёта


Трекер:  [ 28-Дек-2011 09:08 ]

  

Скачать .torrent

Размер .torrent файла 23 KB


Размер: 2.51 GB
Хэш (hash) релиза: 05cf27bbb2d855977e41b383dcd608494498b40d

Еще никто не оставлял запись к записи скачать торрент Голубые береты - Коллекция 7 CD - 2001-2009, APE, FLAC . Будь первым!

!Обратная связь