Скачать через торрент музыку Luke Kelly - The Performer бесплатно без регистрации torrent

Если у вас наблюдаются проблемы со скриншотами, переходом по ссылками, скачиванием торрентов - проблемы в блокировщике рекламы AdBlock. #хорошегоДня!


Статистика раздачи
Размер:  7.6 GB   |    Зарегистрирован:  5 лет 8 месяцев   |    .torrent скачан:  26 раз   |   
Раздают:  1  
   
Загрузка...
 
Автор Сообщение

Galfimbul

avatar Galfimbul


Luke Kelly - The Performer (The Dubliners)

Год выпуска: 2006
Страна: Ireland
Жанр: Irish folk
Продолжительность: 03:13:27

Описание:
Фильм Майкла Фини Каллана (Michael Feeney Callan)
включает 19 архивных выступлений и уникальную коллекцию интервью
с такими легендарными фигурами как Donovan, Ralph McTell
и участниками The Dubliners.

Tracklist:

1. Whiskey In The Jar
2. Murshin Durkin
3. The Black Velvet Band
4. Monto
5. Hand Me Down Me Bible
6. Kelly The Boy From Killane
7. Maids When You're Young Never Marry An Old Man
8. Scorn Not His Simplicity
9. The Town I Loved So Well
10. Dirty Old Town
11. Rocky Road To Dublin
12. Farewell To Carlingford
13. Raglan Road
14. Paddy On The Railway
15. The Auld Triangle
16. The Hot Asphalt
17. Come To The Bower
18. The Night Visiting Song
19. The Wild Rover

Дополнительные материалы:

Фото галлерея
Бонусные интервью: Дублинцы (The Dubliners) вспоминают
Поэзия и Люк:
Damien Dempsey читает "Дублин" Льюиса МакНиса ('Dublin' by Louis MacNiece)
Donovan читает "За что погибли сыны Роушин" Люка Келли ('For What Died The Sons of Roisin' by Luke Kelly)
John Sheahan читает "21-я годовщина Люка" Джона Шихана ('Lukes 21st Anniversary' by John Sheahan)

Источник: ThePirateBay

Качество: DVD9
Формат: DVD Video
Видео кодек: MPEG2
Аудио кодек: AC3
Видео: PAL 16:9 (720x576) VBR, Auto Letterboxed
Аудио: English (Dolby AC3, 2 ch)
Общее
Полное имя : E:\Upload\Luke Kelly - The Performer\VIDEO_TS\VIDEO_TS.BUP
Формат : DVD Video
Профиль формата : Menu
Размер файла : 12,0 Кбайт
Режим общего битрейта : Переменный

Видео
Идентификатор : 224 (0xE0)
Формат : MPEG Video
Версия формата : Version 2
Вид битрейта : Переменный
Ширина : 720 пикселей
Высота : 576 пикселей
Соотношение сторон : 16:9
Частота кадров : 25,000 кадров/сек
Стандарт вещания : PAL
Метод сжатия : С потерями

Аудио
Формат : AC-3
Формат/Информация : Audio Coding 3
Каналы : 2 канала
Частота : 48,0 КГц
Метод сжатия : С потерями

Текст
Формат : RLE
Формат/Информация : Run-length encoding
Битовая глубина : 2 бит

Общее
Полное имя : E:\Upload\Luke Kelly - The Performer\VIDEO_TS\VIDEO_TS.IFO
Формат : DVD Video
Профиль формата : Menu
Размер файла : 12,0 Кбайт
Режим общего битрейта : Переменный

Видео
Идентификатор : 224 (0xE0)
Формат : MPEG Video
Версия формата : Version 2
Вид битрейта : Переменный
Ширина : 720 пикселей
Высота : 576 пикселей
Соотношение сторон : 16:9
Частота кадров : 25,000 кадров/сек
Стандарт вещания : PAL
Метод сжатия : С потерями

Аудио
Формат : AC-3
Формат/Информация : Audio Coding 3
Каналы : 2 канала
Частота : 48,0 КГц
Метод сжатия : С потерями

Текст
Формат : RLE
Формат/Информация : Run-length encoding
Битовая глубина : 2 бит

Общее
Полное имя : E:\Upload\Luke Kelly - The Performer\VIDEO_TS\VIDEO_TS.VOB
Формат : MPEG-PS
Размер файла : 5,14 Мбайт
Продолжительность : 7 с. 0 мс.
Режим общего битрейта : Переменный
Общий поток : 6160 Кбит/сек

Видео
Идентификатор : 224 (0xE0)
Формат : MPEG Video
Версия формата : Version 2
Профиль формата : Main@Main
Параметр BVOP формата : Да
Параметр матрицы формата : Выборочная
Продолжительность : 7 с. 0 мс.
Вид битрейта : Переменный
Битрейт : 5814 Кбит/сек
Ширина : 720 пикселей
Высота : 576 пикселей
Соотношение сторон : 16:9
Частота кадров : 25,000 кадров/сек
Стандарт вещания : PAL
Цветовое пространство : YUV
Субдискретизация насыщенности : 4:2:0
Битовая глубина : 8 бит
Метод сжатия : С потерями
Бит/(Пиксели*Кадры) : 0.561
Размер потока : 4,85 Мбайт (94%)

Аудио
Идентификатор : 189 (0xBD)-128 (0x80)
Формат : AC-3
Формат/Информация : Audio Coding 3
Расширение режима : CM (complete main)
Режим смешивания : DVD-Video
Продолжительность : 6 с. 976 мс.
Вид битрейта : Постоянный
Битрейт : 224 Кбит/сек
Каналы : 2 канала
Расположение каналов : Front: L R
Частота : 48,0 КГц
Битовая глубина : 16 бит
Метод сжатия : С потерями
Размер потока : 191 Кбайт (4%)

Меню

Общее
Полное имя : E:\Upload\Luke Kelly - The Performer\VIDEO_TS\VTS_01_0.BUP
Формат : DVD Video
Профиль формата : Program
Размер файла : 124 Кбайт
Продолжительность : 1 ч. 39 м.
Режим общего битрейта : Переменный
Общий поток : 170 бит/сек

Видео
Идентификатор : 224 (0xE0)
Формат : MPEG Video
Версия формата : Version 2
Продолжительность : 1 ч. 39 м.
Вид битрейта : Переменный
Ширина : 720 пикселей
Высота : 576 пикселей
Соотношение сторон : 16:9
Частота кадров : 25,000 кадров/сек
Стандарт вещания : PAL
Метод сжатия : С потерями

Аудио
Идентификатор : 128 (0x80)
Формат : AC-3
Формат/Информация : Audio Coding 3
Продолжительность : 1 ч. 39 м.
Каналы : 2 канала
Частота : 48,0 КГц
Метод сжатия : С потерями
Язык : English

Меню #1
Продолжительность : 1 ч. 39 м.
00:00:00.000 : Chapter 1
00:01:56.920 : Chapter 2
00:04:36.040 : Chapter 3
00:06:14.440 : Chapter 4
00:08:25.040 : Chapter 5
00:09:35.160 : Chapter 6
00:13:37.320 : Chapter 7
00:15:59.280 : Chapter 8
00:18:49.600 : Chapter 9
00:20:42.520 : Chapter 10
00:24:05.760 : Chapter 11
00:24:57.440 : Chapter 12
00:27:39.640 : Chapter 13
00:28:04.560 : Chapter 14
00:31:58.600 : Chapter 15
00:33:52.720 : Chapter 16
00:38:26.000 : Chapter 17
00:41:02.720 : Chapter 18
00:47:35.440 : Chapter 19
00:49:32.480 : Chapter 20
00:53:17.440 : Chapter 21
00:54:55.200 : Chapter 22
00:58:19.240 : Chapter 23
00:59:20.880 : Chapter 24
01:02:27.000 : Chapter 25
01:05:08.200 : Chapter 26
01:09:39.960 : Chapter 27
01:11:00.640 : Chapter 28
01:14:28.600 : Chapter 29
01:16:22.800 : Chapter 30
01:19:24.560 : Chapter 31
01:19:48.320 : Chapter 32
01:23:04.920 : Chapter 33
01:23:58.520 : Chapter 34
01:26:53.760 : Chapter 35
01:29:18.320 : Chapter 36
01:32:52.200 : Chapter 37
01:35:03.080 : Chapter 38
01:37:53.000 : Chapter 39
01:39:33.360 : Chapter 40
List (Audio) : 0

Меню #2
Продолжительность : 1 ч. 6 м.
00:00:00.000 : Chapter 1
00:02:39.120 : Chapter 2
00:04:49.720 : Chapter 3
00:08:51.880 : Chapter 4
00:11:42.200 : Chapter 5
00:15:05.440 : Chapter 6
00:17:47.640 : Chapter 7
00:21:41.680 : Chapter 8
00:26:14.960 : Chapter 9
00:32:47.680 : Chapter 10
00:36:32.640 : Chapter 11
00:39:56.680 : Chapter 12
00:43:02.800 : Chapter 13
00:47:34.560 : Chapter 14
00:51:02.520 : Chapter 15
00:54:04.280 : Chapter 16
00:57:20.880 : Chapter 17
01:00:16.120 : Chapter 18
01:03:50.000 : Chapter 19
01:06:39.920 : Chapter 20
List (Audio) : 0

Меню #3
Продолжительность : 1 м. 25 с.
00:00:00.000 : Chapter 1
00:01:25.240 : Chapter 2
List (Audio) : 0

Меню #4
Продолжительность : 3 м. 4 с.
00:00:00.000 : Chapter 1
00:03:03.560 : Chapter 2
List (Audio) : 0

Меню #5
Продолжительность : 1 м. 13 с.
00:00:00.000 : Chapter 1
00:01:13.080 : Chapter 2
List (Audio) : 0

Меню #6
Продолжительность : 17 м.
00:00:00.000 : Chapter 1
00:17:06.000 : Chapter 2
List (Audio) : 0

Меню #7
Продолжительность : 4 м. 25 с.
00:00:00.000 : Chapter 1
00:04:25.200 : Chapter 2
List (Audio) : 0

Общее
Полное имя : E:\Upload\Luke Kelly - The Performer\VIDEO_TS\VTS_01_0.IFO
Формат : DVD Video
Профиль формата : Program
Размер файла : 124 Кбайт
Продолжительность : 1 ч. 39 м.
Режим общего битрейта : Переменный
Общий поток : 170 бит/сек

Видео
Идентификатор : 224 (0xE0)
Формат : MPEG Video
Версия формата : Version 2
Продолжительность : 1 ч. 39 м.
Вид битрейта : Переменный
Ширина : 720 пикселей
Высота : 576 пикселей
Соотношение сторон : 16:9
Частота кадров : 25,000 кадров/сек
Стандарт вещания : PAL
Метод сжатия : С потерями

Аудио
Идентификатор : 128 (0x80)
Формат : AC-3
Формат/Информация : Audio Coding 3
Продолжительность : 1 ч. 39 м.
Каналы : 2 канала
Частота : 48,0 КГц
Метод сжатия : С потерями
Язык : English

Меню #1
Продолжительность : 1 ч. 39 м.
00:00:00.000 : Chapter 1
00:01:56.920 : Chapter 2
00:04:36.040 : Chapter 3
00:06:14.440 : Chapter 4
00:08:25.040 : Chapter 5
00:09:35.160 : Chapter 6
00:13:37.320 : Chapter 7
00:15:59.280 : Chapter 8
00:18:49.600 : Chapter 9
00:20:42.520 : Chapter 10
00:24:05.760 : Chapter 11
00:24:57.440 : Chapter 12
00:27:39.640 : Chapter 13
00:28:04.560 : Chapter 14
00:31:58.600 : Chapter 15
00:33:52.720 : Chapter 16
00:38:26.000 : Chapter 17
00:41:02.720 : Chapter 18
00:47:35.440 : Chapter 19
00:49:32.480 : Chapter 20
00:53:17.440 : Chapter 21
00:54:55.200 : Chapter 22
00:58:19.240 : Chapter 23
00:59:20.880 : Chapter 24
01:02:27.000 : Chapter 25
01:05:08.200 : Chapter 26
01:09:39.960 : Chapter 27
01:11:00.640 : Chapter 28
01:14:28.600 : Chapter 29
01:16:22.800 : Chapter 30
01:19:24.560 : Chapter 31
01:19:48.320 : Chapter 32
01:23:04.920 : Chapter 33
01:23:58.520 : Chapter 34
01:26:53.760 : Chapter 35
01:29:18.320 : Chapter 36
01:32:52.200 : Chapter 37
01:35:03.080 : Chapter 38
01:37:53.000 : Chapter 39
01:39:33.360 : Chapter 40
List (Audio) : 0

Меню #2
Продолжительность : 1 ч. 6 м.
00:00:00.000 : Chapter 1
00:02:39.120 : Chapter 2
00:04:49.720 : Chapter 3
00:08:51.880 : Chapter 4
00:11:42.200 : Chapter 5
00:15:05.440 : Chapter 6
00:17:47.640 : Chapter 7
00:21:41.680 : Chapter 8
00:26:14.960 : Chapter 9
00:32:47.680 : Chapter 10
00:36:32.640 : Chapter 11
00:39:56.680 : Chapter 12
00:43:02.800 : Chapter 13
00:47:34.560 : Chapter 14
00:51:02.520 : Chapter 15
00:54:04.280 : Chapter 16
00:57:20.880 : Chapter 17
01:00:16.120 : Chapter 18
01:03:50.000 : Chapter 19
01:06:39.920 : Chapter 20
List (Audio) : 0

Меню #3
Продолжительность : 1 м. 25 с.
00:00:00.000 : Chapter 1
00:01:25.240 : Chapter 2
List (Audio) : 0

Меню #4
Продолжительность : 3 м. 4 с.
00:00:00.000 : Chapter 1
00:03:03.560 : Chapter 2
List (Audio) : 0

Меню #5
Продолжительность : 1 м. 13 с.
00:00:00.000 : Chapter 1
00:01:13.080 : Chapter 2
List (Audio) : 0

Меню #6
Продолжительность : 17 м.
00:00:00.000 : Chapter 1
00:17:06.000 : Chapter 2
List (Audio) : 0

Меню #7
Продолжительность : 4 м. 25 с.
00:00:00.000 : Chapter 1
00:04:25.200 : Chapter 2
List (Audio) : 0

Общее
Полное имя : E:\Upload\Luke Kelly - The Performer\VIDEO_TS\VTS_01_0.VOB
Формат : MPEG-PS
Размер файла : 479 Мбайт
Продолжительность : 1 м. 0 с.
Режим общего битрейта : Переменный
Общий поток : 66,9 Мбит/сек
Библиотека кодирования : encoded by TMPGEnc 3.0 XPress Version. 3.1.5.82

Видео
Идентификатор : 224 (0xE0)
Формат : MPEG Video
Версия формата : Version 2
Профиль формата : Main@Main
Параметр BVOP формата : Да
Параметр матрицы формата : По умолчанию
Параметр GOP формата : M=3, N=12
Продолжительность : 1 м. 0 с.
Вид битрейта : Переменный
Битрейт : 65,2 Мбит/сек
Максимальный битрейт : 8500 Кбит/сек
Ширина : 720 пикселей
Высота : 576 пикселей
Соотношение сторон : 16:9
Частота кадров : 25,000 кадров/сек
Стандарт вещания : PAL
Цветовое пространство : YUV
Субдискретизация насыщенности : 4:2:0
Битовая глубина : 8 бит
Тип развёртки : Чересстрочная
Порядок развёртки : Верхнее поле первое
Метод сжатия : С потерями
Бит/(Пиксели*Кадры) : 6.285
Размер потока : 466 Мбайт (97%)
Библиотека кодирования : TMPGEnc 3.0 XPress Version. 3.1.5.82
Основные цвета : SMPTE 170M
Характеристики трансфера : SMPTE 170M
Коэффициенты матрицы : SMPTE 170M

Аудио
Идентификатор : 189 (0xBD)-128 (0x80)
Формат : AC-3
Формат/Информация : Audio Coding 3
Расширение режима : CM (complete main)
Режим смешивания : DVD-Video
Продолжительность : 59 с.
Вид битрейта : Постоянный
Битрейт : 448 Кбит/сек
Каналы : 2 канала
Расположение каналов : Front: L R
Частота : 48,0 КГц
Битовая глубина : 16 бит
Метод сжатия : С потерями
Размер потока : 3,18 Мбайт (1%)

Меню

Общее
Полное имя : E:\Upload\Luke Kelly - The Performer\VIDEO_TS\VTS_01_1.VOB
Формат : MPEG-PS
Размер файла : 1024 Мбайт
Продолжительность : 15 м.
Режим общего битрейта : Переменный
Общий поток : 9338 Кбит/сек

Видео
Идентификатор : 224 (0xE0)
Формат : MPEG Video
Версия формата : Version 2
Профиль формата : Main@Main
Параметр BVOP формата : Да
Параметр матрицы формата : Выборочная
Продолжительность : 15 м.
Вид битрейта : Переменный
Битрейт : 8928 Кбит/сек
Максимальный битрейт : 8264 Кбит/сек
Ширина : 720 пикселей
Высота : 576 пикселей
Соотношение сторон : 16:9
Частота кадров : 25,000 кадров/сек
Стандарт вещания : PAL
Цветовое пространство : YUV
Субдискретизация насыщенности : 4:2:0
Битовая глубина : 8 бит
Тип развёртки : Чересстрочная
Порядок развёртки : Верхнее поле первое
Метод сжатия : С потерями
Бит/(Пиксели*Кадры) : 0.861
Размер потока : 979 Мбайт (96%)

Аудио
Идентификатор : 189 (0xBD)-128 (0x80)
Формат : AC-3
Формат/Информация : Audio Coding 3
Расширение режима : CM (complete main)
Режим смешивания : DVD-Video
Продолжительность : 15 м.
Вид битрейта : Постоянный
Битрейт : 224 Кбит/сек
Каналы : 2 канала
Расположение каналов : Front: L R
Частота : 48,0 КГц
Битовая глубина : 16 бит
Метод сжатия : С потерями
Размер потока : 24,6 Мбайт (2%)

Меню

Общее
Полное имя : E:\Upload\Luke Kelly - The Performer\VIDEO_TS\VTS_01_2.VOB
Формат : MPEG-PS
Размер файла : 1024 Мбайт
Продолжительность : 11 м.
Режим общего битрейта : Переменный
Общий поток : 12,2 Мбит/сек

Видео
Идентификатор : 224 (0xE0)
Формат : MPEG Video
Версия формата : Version 2
Профиль формата : Main@Main
Параметр BVOP формата : Да
Параметр матрицы формата : Выборочная
Параметр GOP формата : M=3, N=12
Продолжительность : 11 м.
Вид битрейта : Переменный
Битрейт : 11,7 Мбит/сек
Максимальный битрейт : 8264 Кбит/сек
Ширина : 720 пикселей
Высота : 576 пикселей
Соотношение сторон : 16:9
Частота кадров : 25,000 кадров/сек
Стандарт вещания : PAL
Цветовое пространство : YUV
Субдискретизация насыщенности : 4:2:0
Битовая глубина : 8 бит
Тип развёртки : Чересстрочная
Порядок развёртки : Верхнее поле первое
Метод сжатия : С потерями
Бит/(Пиксели*Кадры) : 1.127
Размер потока : 984 Мбайт (96%)

Аудио
Идентификатор : 189 (0xBD)-128 (0x80)
Формат : AC-3
Формат/Информация : Audio Coding 3
Расширение режима : CM (complete main)
Режим смешивания : DVD-Video
Продолжительность : 11 м.
Вид битрейта : Постоянный
Битрейт : 224 Кбит/сек
Каналы : 2 канала
Расположение каналов : Front: L R
Частота : 48,0 КГц
Битовая глубина : 16 бит
Метод сжатия : С потерями
Задержка видео : -592 мс.
Размер потока : 18,9 Мбайт (2%)

Меню

Общее
Полное имя : E:\Upload\Luke Kelly - The Performer\VIDEO_TS\VTS_01_3.VOB
Формат : MPEG-PS
Размер файла : 1024 Мбайт
Продолжительность : 10 м.
Режим общего битрейта : Переменный
Общий поток : 13,5 Мбит/сек

Видео
Идентификатор : 224 (0xE0)
Формат : MPEG Video
Версия формата : Version 2
Профиль формата : Main@Main
Параметр BVOP формата : Да
Параметр матрицы формата : Выборочная
Параметр GOP формата : M=3, N=12
Продолжительность : 10 м.
Вид битрейта : Переменный
Битрейт : 13,1 Мбит/сек
Максимальный битрейт : 8264 Кбит/сек
Ширина : 720 пикселей
Высота : 576 пикселей
Соотношение сторон : 16:9
Частота кадров : 25,000 кадров/сек
Стандарт вещания : PAL
Цветовое пространство : YUV
Субдискретизация насыщенности : 4:2:0
Битовая глубина : 8 бит
Тип развёртки : Чересстрочная
Порядок развёртки : Верхнее поле первое
Метод сжатия : С потерями
Бит/(Пиксели*Кадры) : 1.259
Размер потока : 986 Мбайт (96%)

Аудио
Идентификатор : 189 (0xBD)-128 (0x80)
Формат : AC-3
Формат/Информация : Audio Coding 3
Расширение режима : CM (complete main)
Режим смешивания : DVD-Video
Продолжительность : 10 м.
Вид битрейта : Постоянный
Битрейт : 224 Кбит/сек
Каналы : 2 канала
Расположение каналов : Front: L R
Частота : 48,0 КГц
Битовая глубина : 16 бит
Метод сжатия : С потерями
Задержка видео : -336 мс.
Размер потока : 16,9 Мбайт (2%)

Меню

Общее
Полное имя : E:\Upload\Luke Kelly - The Performer\VIDEO_TS\VTS_01_4.VOB
Формат : MPEG-PS
Размер файла : 1024 Мбайт
Продолжительность : 24 м.
Режим общего битрейта : Переменный
Общий поток : 5800 Кбит/сек

Видео
Идентификатор : 224 (0xE0)
Формат : MPEG Video
Версия формата : Version 2
Профиль формата : Main@Main
Параметр BVOP формата : Да
Параметр матрицы формата : Выборочная
Параметр GOP формата : M=3, N=12
Продолжительность : 24 м.
Вид битрейта : Переменный
Битрейт : 5461 Кбит/сек
Максимальный битрейт : 8264 Кбит/сек
Ширина : 720 пикселей
Высота : 576 пикселей
Соотношение сторон : 16:9
Частота кадров : 25,000 кадров/сек
Стандарт вещания : PAL
Цветовое пространство : YUV
Субдискретизация насыщенности : 4:2:0
Битовая глубина : 8 бит
Тип развёртки : Чересстрочная
Порядок развёртки : Верхнее поле первое
Метод сжатия : С потерями
Бит/(Пиксели*Кадры) : 0.527
Размер потока : 964 Мбайт (94%)

Аудио
Идентификатор : 189 (0xBD)-128 (0x80)
Формат : AC-3
Формат/Информация : Audio Coding 3
Расширение режима : CM (complete main)
Режим смешивания : DVD-Video
Продолжительность : 24 м.
Вид битрейта : Постоянный
Битрейт : 224 Кбит/сек
Каналы : 2 канала
Расположение каналов : Front: L R
Частота : 48,0 КГц
Битовая глубина : 16 бит
Метод сжатия : С потерями
Задержка видео : -368 мс.
Размер потока : 39,5 Мбайт (4%)

Меню

Общее
Полное имя : E:\Upload\Luke Kelly - The Performer\VIDEO_TS\VTS_01_5.VOB
Формат : MPEG-PS
Размер файла : 1024 Мбайт
Продолжительность : 22 м.
Режим общего битрейта : Переменный
Общий поток : 6375 Кбит/сек

Видео
Идентификатор : 224 (0xE0)
Формат : MPEG Video
Версия формата : Version 2
Профиль формата : Main@Main
Параметр BVOP формата : Да
Параметр матрицы формата : Выборочная
Параметр GOP формата : M=3, N=12
Продолжительность : 22 м.
Вид битрейта : Переменный
Битрейт : 6024 Кбит/сек
Максимальный битрейт : 8264 Кбит/сек
Ширина : 720 пикселей
Высота : 576 пикселей
Соотношение сторон : 16:9
Частота кадров : 25,000 кадров/сек
Стандарт вещания : PAL
Цветовое пространство : YUV
Субдискретизация насыщенности : 4:2:0
Битовая глубина : 8 бит
Тип развёртки : Чересстрочная
Порядок развёртки : Верхнее поле первое
Метод сжатия : С потерями
Бит/(Пиксели*Кадры) : 0.581
Размер потока : 967 Мбайт (94%)

Аудио
Идентификатор : 189 (0xBD)-128 (0x80)
Формат : AC-3
Формат/Информация : Audio Coding 3
Расширение режима : CM (complete main)
Режим смешивания : DVD-Video
Продолжительность : 22 м.
Вид битрейта : Постоянный
Битрейт : 224 Кбит/сек
Каналы : 2 канала
Расположение каналов : Front: L R
Частота : 48,0 КГц
Битовая глубина : 16 бит
Метод сжатия : С потерями
Задержка видео : -528 мс.
Размер потока : 36,0 Мбайт (4%)

Меню

Общее
Полное имя : E:\Upload\Luke Kelly - The Performer\VIDEO_TS\VTS_01_6.VOB
Формат : MPEG-PS
Размер файла : 1024 Мбайт
Продолжительность : 11 м.
Режим общего битрейта : Переменный
Общий поток : 12,7 Мбит/сек

Видео
Идентификатор : 224 (0xE0)
Формат : MPEG Video
Версия формата : Version 2
Профиль формата : Main@Main
Параметр BVOP формата : Да
Параметр матрицы формата : Выборочная
Параметр GOP формата : M=3, N=12
Продолжительность : 11 м.
Вид битрейта : Переменный
Битрейт : 12,2 Мбит/сек
Максимальный битрейт : 8264 Кбит/сек
Ширина : 720 пикселей
Высота : 576 пикселей
Соотношение сторон : 16:9
Частота кадров : 25,000 кадров/сек
Стандарт вещания : PAL
Цветовое пространство : YUV
Субдискретизация насыщенности : 4:2:0
Битовая глубина : 8 бит
Тип развёртки : Чересстрочная
Порядок развёртки : Верхнее поле первое
Метод сжатия : С потерями
Бит/(Пиксели*Кадры) : 1.178
Размер потока : 985 Мбайт (96%)

Аудио
Идентификатор : 189 (0xBD)-128 (0x80)
Формат : AC-3
Формат/Информация : Audio Coding 3
Расширение режима : CM (complete main)
Режим смешивания : DVD-Video
Продолжительность : 11 м.
Вид битрейта : Постоянный
Битрейт : 224 Кбит/сек
Каналы : 2 канала
Расположение каналов : Front: L R
Частота : 48,0 КГц
Битовая глубина : 16 бит
Метод сжатия : С потерями
Задержка видео : -400 мс.
Размер потока : 18,1 Мбайт (2%)

Меню

Общее
Полное имя : E:\Upload\Luke Kelly - The Performer\VIDEO_TS\VTS_01_7.VOB
Формат : MPEG-PS
Размер файла : 1024 Мбайт
Продолжительность : 5 с. 760 мс.
Режим общего битрейта : Переменный
Общий поток : 1491 Мбит/сек

Видео
Идентификатор : 224 (0xE0)
Формат : MPEG Video
Версия формата : Version 2
Профиль формата : Main@Main
Параметр BVOP формата : Да
Параметр матрицы формата : Выборочная
Параметр GOP формата : M=3, N=12
Продолжительность : 5 с. 760 мс.
Вид битрейта : Переменный
Битрейт : 1461 Мбит/сек
Максимальный битрейт : 8264 Кбит/сек
Ширина : 720 пикселей
Высота : 576 пикселей
Соотношение сторон : 16:9
Частота кадров : 25,000 кадров/сек
Стандарт вещания : PAL
Цветовое пространство : YUV
Субдискретизация насыщенности : 4:2:0
Битовая глубина : 8 бит
Тип развёртки : Чересстрочная
Порядок развёртки : Верхнее поле первое
Метод сжатия : С потерями
Бит/(Пиксели*Кадры) : 140.953
Размер потока : 1003 Мбайт (98%)

Аудио
Идентификатор : 189 (0xBD)-128 (0x80)
Формат : AC-3
Формат/Информация : Audio Coding 3
Расширение режима : CM (complete main)
Режим смешивания : DVD-Video
Продолжительность : 5 с. 760 мс.
Вид битрейта : Постоянный
Битрейт : 224 Кбит/сек
Каналы : 2 канала
Расположение каналов : Front: L R
Частота : 48,0 КГц
Битовая глубина : 16 бит
Метод сжатия : С потерями
Задержка видео : -336 мс.
Размер потока : 158 Кбайт (0%)

Меню

Общее
Полное имя : E:\Upload\Luke Kelly - The Performer\VIDEO_TS\VTS_01_8.VOB
Формат : MPEG-PS
Размер файла : 132 Мбайт
Продолжительность : 3 м. 6 с.
Режим общего битрейта : Переменный
Общий поток : 5946 Кбит/сек

Видео
Идентификатор : 224 (0xE0)
Формат : MPEG Video
Версия формата : Version 2
Профиль формата : Main@Main
Параметр BVOP формата : Да
Параметр матрицы формата : Выборочная
Параметр GOP формата : M=3, N=12
Продолжительность : 3 м. 6 с.
Вид битрейта : Переменный
Битрейт : 5604 Кбит/сек
Максимальный битрейт : 8264 Кбит/сек
Ширина : 720 пикселей
Высота : 576 пикселей
Соотношение сторон : 16:9
Частота кадров : 25,000 кадров/сек
Стандарт вещания : PAL
Цветовое пространство : YUV
Субдискретизация насыщенности : 4:2:0
Битовая глубина : 8 бит
Тип развёртки : Чересстрочная
Порядок развёртки : Верхнее поле первое
Метод сжатия : С потерями
Бит/(Пиксели*Кадры) : 0.540
Размер потока : 125 Мбайт (94%)

Аудио
Идентификатор : 189 (0xBD)-128 (0x80)
Формат : AC-3
Формат/Информация : Audio Coding 3
Расширение режима : CM (complete main)
Режим смешивания : DVD-Video
Продолжительность : 3 м. 6 с.
Вид битрейта : Постоянный
Битрейт : 224 Кбит/сек
Каналы : 2 канала
Расположение каналов : Front: L R
Частота : 48,0 КГц
Битовая глубина : 16 бит
Метод сжатия : С потерями
Задержка видео : -432 мс.
Размер потока : 4,99 Мбайт (4%)

Меню


Трекер:  [ 19-Янв-2012 16:29 ]

  

Скачать .torrent

Размер .torrent файла 39 KB


Размер: 7.6 GB
Хэш (hash) релиза: d72a9ec7abd4c6a3101a8b74d501323dcfadba83

bot

Топик был перенесен в форум Фольклор, Народная и Этническая музыка (video)

Перенес Galfimbul

Хотите добавить комментарий к записи скачать торрент Luke Kelly - The Performer

!Обратная связь