Скачать через торрент музыку Меня зовут Эрл My Name Is Earl - 2006 бесплатно без регистрации torrent

Если у вас наблюдаются проблемы со скриншотами, переходом по ссылками, скачиванием торрентов - проблемы в блокировщике рекламы AdBlock. #хорошегоДня!


Статистика раздачи
Размер:  332 MB   |    Зарегистрирован:  5 лет 7 месяцев   |    .torrent скачан:  34 раза   |   
Раздают:  1  
   
Загрузка...
 
Автор Сообщение

Galfimbul

avatar Galfimbul


Меня зовут Эрл / My Name Is Earl
Жанр: Soundtrack
Год выпуска диска: 2006
Производитель диска: USA
Аудио кодек: FLAC
Тип рипа: tracks+.cue
Битрейт аудио: lossless
Продолжительность: 00:50:06
01. Earl, Randy & Catalina - 'I'm The Bandit' (00:13)
02. Jerry Reed - East Bound and Down (02:46)
03. Uncle Kracker - The Weight (04:58)
04. Los Lobos - One Time One Night (04:50)
05. Young M.C. - Bust a Move (04:24)
06. Matthew Sweet - Livin' Thing (03:40)
07. Rob Base & D.J. E-Z Rock - It Takes Two (05:00)
08. Sammy Davis, Jr. - Smoke! Smoke! Smoke! (That Cigarette) (03:04)
09. Lynyrd Skynyrd - Gimme Three Steps (04:40)
10. Harry Nilsson - Joy (03:43)
11. Jerry Reed - Amos Moses (02:26)
12. John Hiatt - Instant Karma (03:35)
13. Nescobar-a-lop-lop and the Camden County Band - What Goes Around Comes Around (Earl's Theme, Vocal Version) (03:09)
14. Van Nuys - 99 Red Balloons (03:37)
Источник: what.cd
 
Exact Audio Copy V1.0 beta 1 from 15. November 2010

EAC extraction logfile from 9. December 2011, 19:20

Various / My Name Is Earl

Used drive : PIONEER DVD-RW DVRKD08L Adapter: 1 ID: 0

Read mode : SecureUtilize accurate stream : YesDefeat audio cache : YesMake use of C2 pointers : No

Read offset correction : 48Overread into Lead-In and Lead-Out : NoFill up missing offset samples with silence : YesDelete leading and trailing silent blocks : NoNull samples used in CRC calculations : YesUsed interface : Native Win32 interface for Win NT & 2000Gap handling : Appended to previous track

Used output format : User Defined EncoderSelected bitrate : 320 kBit/sQuality : HighAdd ID3 tag : NoCommand line compressor : C:\Program Files (x86)\Exact Audio Copy\Flac\flac.exeAdditional command line options : -V -8 -T "artist=%a" -T "title=%t" -T "album=%g" -T "date=%y" -T "tracknumber=%n" -T "genre=%m" %s

TOC of the extracted CD

Track | Start | Length | Start sector | End sector --------------------------------------------------------- 1 | 0:00.00 | 0:13.10 | 0 | 984 2 | 0:13.10 | 2:46.32 | 985 | 13466 3 | 2:59.42 | 4:58.13 | 13467 | 35829 4 | 7:57.55 | 4:50.27 | 35830 | 57606 5 | 12:48.07 | 4:23.58 | 57607 | 77389 6 | 17:11.65 | 3:39.42 | 77390 | 93856 7 | 20:51.32 | 5:00.25 | 93857 | 116381 8 | 25:51.57 | 3:03.63 | 116382 | 130169 9 | 28:55.45 | 4:40.20 | 130170 | 151189 10 | 33:35.65 | 3:43.25 | 151190 | 167939 11 | 37:19.15 | 2:25.70 | 167940 | 178884 12 | 39:45.10 | 3:35.07 | 178885 | 195016 13 | 43:20.17 | 3:09.20 | 195017 | 209211 14 | 46:29.37 | 3:37.10 | 209212 | 225496

Track 1

Filename c:\EACrips\My Name Is Earl (2006) [FLAC]\01 - Earl, Randy & Catalina - ''I'm The Bandit''.wav

Pre-gap length 0:00:02.00

Peak level 94.4 % Extraction speed 0.7 X Track quality 100.0 % Test CRC BEDBB998 Copy CRC BEDBB998 Accurately ripped (confidence 3) [0BDD8F24] Copy OK

Track 2

Filename c:\EACrips\My Name Is Earl (2006) [FLAC]\02 - Jerry Reed - East Bound and Down.wav

Peak level 97.7 % Extraction speed 2.5 X Track quality 100.0 % Test CRC 8F008307 Copy CRC 8F008307 Accurately ripped (confidence 3) [05F8316B] Copy OK

Track 3

Filename c:\EACrips\My Name Is Earl (2006) [FLAC]\03 - Uncle Kracker - The Weight.wav

Peak level 97.8 % Extraction speed 2.7 X Track quality 99.9 % Test CRC AC0158B9 Copy CRC AC0158B9 Accurately ripped (confidence 3) [8A560ED8] Copy OK

Track 4

Filename c:\EACrips\My Name Is Earl (2006) [FLAC]\04 - Los Lobos - One Time One Night.wav

Peak level 99.9 % Extraction speed 3.3 X Track quality 100.0 % Test CRC F00447D1 Copy CRC F00447D1 Accurately ripped (confidence 3) [1000BA4E] Copy OK

Track 5

Filename c:\EACrips\My Name Is Earl (2006) [FLAC]\05 - Young M.C. - Bust a Move.wav

Pre-gap length 0:00:03.40

Peak level 97.8 % Extraction speed 3.5 X Track quality 100.0 % Test CRC 1856CDC3 Copy CRC 1856CDC3 Accurately ripped (confidence 3) [A4B69F1A] Copy OK

Track 6

Filename c:\EACrips\My Name Is Earl (2006) [FLAC]\06 - Matthew Sweet - Livin' Thing.wav

Peak level 97.8 % Extraction speed 3.6 X Track quality 100.0 % Test CRC 3F71F143 Copy CRC 3F71F143 Accurately ripped (confidence 3) [F9AD25C6] Copy OK

Track 7

Filename c:\EACrips\My Name Is Earl (2006) [FLAC]\07 - Rob Base & D.J. E-Z Rock - It Takes Two.wav

Pre-gap length 0:00:03.69

Peak level 97.7 % Extraction speed 4.0 X Track quality 100.0 % Test CRC B8005834 Copy CRC B8005834 Accurately ripped (confidence 3) [B4B8638D] Copy OK

Track 8

Filename c:\EACrips\My Name Is Earl (2006) [FLAC]\08 - Sammy Davis, Jr. - Smoke! Smoke! Smoke! (That Cigarette).wav

Peak level 97.7 % Extraction speed 3.7 X Track quality 100.0 % Test CRC 1396621F Copy CRC 1396621F Accurately ripped (confidence 3) [2911AEEE] Copy OK

Track 9

Filename c:\EACrips\My Name Is Earl (2006) [FLAC]\09 - Lynyrd Skynyrd - Gimme Three Steps.wav

Peak level 97.8 % Extraction speed 3.8 X Track quality 99.9 % Test CRC B3A81DA2 Copy CRC B3A81DA2 Accurately ripped (confidence 3) [35DCB0F3] Copy OK

Track 10

Filename c:\EACrips\My Name Is Earl (2006) [FLAC]\10 - Harry Nilsson - Joy.wav

Pre-gap length 0:00:10.26

Peak level 97.7 % Extraction speed 4.3 X Track quality 100.0 % Test CRC 92E8CA80 Copy CRC 92E8CA80 Accurately ripped (confidence 3) [CE77AAFA] Copy OK

Track 11

Filename c:\EACrips\My Name Is Earl (2006) [FLAC]\11 - Jerry Reed - Amos Moses.wav

Peak level 97.7 % Extraction speed 4.1 X Track quality 100.0 % Test CRC 248BE362 Copy CRC 248BE362 Accurately ripped (confidence 3) [E07A0273] Copy OK

Track 12

Filename c:\EACrips\My Name Is Earl (2006) [FLAC]\12 - John Hiatt - Instant Karma.wav

Pre-gap length 0:00:06.04

Peak level 97.8 % Extraction speed 4.5 X Track quality 100.0 % Test CRC 089027EA Copy CRC 089027EA Accurately ripped (confidence 3) [6D8504E9] Copy OK

Track 13

Filename c:\EACrips\My Name Is Earl (2006) [FLAC]\13 - Nescobar-a-lop-lop and the Camden County Band - What Goes Around Comes Around (Earl's Theme, Vocal Version).wav

Peak level 97.7 % Extraction speed 3.9 X Track quality 99.9 % Test CRC 6ECBAB17 Copy CRC 6ECBAB17 Accurately ripped (confidence 4) [B750B13C] Copy OK

Track 14

Filename c:\EACrips\My Name Is Earl (2006) [FLAC]\14 - Van Nuys - 99 Red Balloons.wav

Pre-gap length 0:00:06.76

Peak level 97.7 % Extraction speed 4.7 X Track quality 100.0 % Test CRC D51F3772 Copy CRC D51F3772 Accurately ripped (confidence 3) [4564A820] Copy OK

All tracks accurately ripped

No errors occurred

End of status report

==== Log checksum 8C7C17D7ED402A178C9FCB20FE45F8F6CCCBB2DDA06451A61408BBF9F21B7C21 ====
 
REM GENRE SoundtrackREM DATE 2006REM DISCID AA0BBE0EREM COMMENT "ExactAudioCopy v1.0b1"PERFORMER "Various Artists"TITLE "My Name Is Earl"FILE "01 - Earl, Randy & Catalina - ''I'm The Bandit''.wav" WAVE TRACK 01 AUDIO TITLE "'I'm The Bandit'" PERFORMER "Earl, Randy & Catalina" FLAGS DCP INDEX 01 00:00:00FILE "02 - Jerry Reed - East Bound and Down.wav" WAVE TRACK 02 AUDIO TITLE "East Bound and Down" PERFORMER "Jerry Reed" FLAGS DCP INDEX 01 00:00:00FILE "03 - Uncle Kracker - The Weight.wav" WAVE TRACK 03 AUDIO TITLE "The Weight" PERFORMER "Uncle Kracker" FLAGS DCP INDEX 01 00:00:00FILE "04 - Los Lobos - One Time One Night.wav" WAVE TRACK 04 AUDIO TITLE "One Time One Night" PERFORMER "Los Lobos" FLAGS DCP INDEX 01 00:00:00 TRACK 05 AUDIO TITLE "Bust a Move" PERFORMER "Young M.C." FLAGS DCP INDEX 00 04:46:72FILE "05 - Young M.C. - Bust a Move.wav" WAVE INDEX 01 00:00:00FILE "06 - Matthew Sweet - Livin' Thing.wav" WAVE TRACK 06 AUDIO TITLE "Livin' Thing" PERFORMER "Matthew Sweet" FLAGS DCP INDEX 01 00:00:00 TRACK 07 AUDIO TITLE "It Takes Two" PERFORMER "Rob Base & D.J. E-Z Rock" FLAGS DCP INDEX 00 03:35:65FILE "07 - Rob Base & D.J. E-Z Rock - It Takes Two.wav" WAVE INDEX 01 00:00:00FILE "08 - Sammy Davis, Jr. - Smoke! Smoke! Smoke! (That Cigarette).wav" WAVE TRACK 08 AUDIO TITLE "Smoke! Smoke! Smoke! (That Cigarette)" PERFORMER "Sammy Davis, Jr." FLAGS DCP INDEX 01 00:00:00FILE "09 - Lynyrd Skynyrd - Gimme Three Steps.wav" WAVE TRACK 09 AUDIO TITLE "Gimme Three Steps" PERFORMER "Lynyrd Skynyrd" FLAGS DCP INDEX 01 00:00:00 TRACK 10 AUDIO TITLE "Joy" PERFORMER "Harry Nilsson" FLAGS DCP INDEX 00 04:30:00FILE "10 - Harry Nilsson - Joy.wav" WAVE INDEX 01 00:00:00FILE "11 - Jerry Reed - Amos Moses.wav" WAVE TRACK 11 AUDIO TITLE "Amos Moses" PERFORMER "Jerry Reed" FLAGS DCP INDEX 01 00:00:00 TRACK 12 AUDIO TITLE "Instant Karma" PERFORMER "John Hiatt" FLAGS DCP INDEX 00 02:19:67FILE "12 - John Hiatt - Instant Karma.wav" WAVE INDEX 01 00:00:00FILE "13 - Nescobar-a-lop-lop and the Camden County Band - What Goes Around Comes Around (Earl's Theme, Vocal Version).wav" WAVE TRACK 13 AUDIO TITLE "What Goes Around Comes Around (Earl's Theme, Vocal Version)" PERFORMER "Nescobar-a-lop-lop and the Camden County Band" FLAGS DCP INDEX 01 00:00:00 TRACK 14 AUDIO TITLE "99 Red Balloons" PERFORMER "Van Nuys" FLAGS DCP INDEX 00 03:02:38FILE "14 - Van Nuys - 99 Red Balloons.wav" WAVE INDEX 01 00:00:00



Трекер:  [ 02-Фев-2012 21:47 ]

  

Скачать .torrent

Размер .torrent файла 14 KB


Размер: 332 MB
Хэш (hash) релиза: 485ace6e23275a2da47ad099f14b8b2ef18f12d6

bot

Топик был перенесен в форум Саундтреки к фильмам и мультфильмам (lossless)

Перенес Galfimbul

Хотите добавить комментарий к записи скачать торрент Меня зовут Эрл My Name Is Earl - 2006

!Обратная связь