Скачать через торрент музыку Оркестр Волынщиков Москвы Moscow & District Pipe Band бесплатно без регистрации torrent

Если у вас наблюдаются проблемы со скриншотами, переходом по ссылками, скачиванием торрентов - проблемы в блокировщике рекламы AdBlock. #хорошегоДня!


Статистика раздачи
Размер:  446 MB   |    Зарегистрирован:  5 лет 8 месяцев   |    .torrent скачан:  40 раз   |   
Раздают:  1  
   
Загрузка...
 
Автор Сообщение

Galfimbul

avatar Galfimbul


Оркестр Волынщиков Москвы / Moscow & District Pipe Band



Страна: Россия
Жанр: Celtic Folk
Продолжительность: 0:15:05
Год выпуска: 2009 г.
Описание: Оркестр Волынщиков Москвы – Moscow & District Pipe Band. Первый профессиональный оркестр шотландских волынок и барабанов в России. Элитный коллектив, который одним своим появлением способен придать любому мероприятию высокий статус, уровень премиум-класса.
Оркестр шотландских волынок и барабанов уже сегодня является неотъемлемой частью торжественных церемоний и событий не только в Шотландии, но и во многих странах мира. Этот вид музыкального искусства стоит расценивать скорее как одну из разновидностей парадных духовых оркестров, нежели определять его по национальному признаку. Шотландская волынка с многовековой историей до сих пор не утратила своей актуальности, в настоящее время традиционная музыка Шотландии в исполнении оркестра волынщиков пользуется большим спросом. Время и развитие культуры не стоят на месте, в этой связи всё чаще на шотландских волынках начинают исполнять народную и современную музыку разных регионов мира.

Треклист:
1. Открытие 4\4, 6\8 марши: We Will Rock You, Scotland The Brave, Wings.
2. Medley: Barren Rock Of Aden, Mist Covered Mountains.
3. Русский Сет: По Дону Гуляет, Из-за Острова На стрежень.
4. Светит Месяц, Камаринская.
5. Закрытие 3\4 марши: Green Hills Of Tyrol, When The Battle Is Over.

Доп. информация: Релиз создан с разрешения и при содействии руководителя Оркестра Волынщиков Москвы - Артемия Воробьёва.
Cсылка http://www.pipeband.ru
Качество: TVRip
Видео: MPEG-4 Visual, 720 x 576, 5:4, 3 942 Kbps, 25.000 fps
Аудио: MPEG Audio, 183 Kbps, 44.1 KHz, 2 channels
Общее
Полное имя : D:\Музыка\Волынка\Оркестр Волынщиков Москвы_видео_торрент\Sobornaya.avi
Формат : AVI
Формат/Информация : Audio Video Interleave
Размер файла : 446 Мбайт
Продолжительность : 15 м.
Режим общего битрейта : Переменный
Общий поток : 4137 Кбит/сек
Программа кодирования : MEncoder Sherpya-SVN-r32492-4.2.5
Библиотека кодирования : MPlayer

Видео
Идентификатор : 0
Формат : MPEG-4 Visual
Идентификатор кодека : MP42
Идентификатор кодека/Информация : Microsoft MPEG-4 v2 (pre-standard)
Идентификатор кодека/Подсказка : Microsoft
Продолжительность : 15 м.
Битрейт : 3942 Кбит/сек
Ширина : 720 пикселей
Высота : 576 пикселей
Соотношение сторон : 5:4
Частота кадров : 25,000 кадров/сек
Стандарт вещания : PAL
Метод сжатия : С потерями
Бит/(Пиксели*Кадры) : 0.380
Размер потока : 425 Мбайт (95%)

Аудио
Идентификатор : 1
Формат : MPEG Audio
Версия формата : Version 1
Профиль формата : Layer 3
Режим : Joint stereo
Расширение режима : MS Stereo
Идентификатор кодека : 55
Идентификатор кодека/Подсказка : MP3
Продолжительность : 15 м.
Вид битрейта : Переменный
Битрейт : 183 Кбит/сек
Каналы : 2 канала
Частота : 44,1 КГц
Метод сжатия : С потерями
Размер потока : 19,7 Мбайт (4%)
Выравнивание : Соединение по промежуткам
Продолжительность промежутка : 26 мс. (0,65 видеокадр)
Время предзагрузки промежутка : 555 мс.


Трекер:  [ 19-Янв-2012 20:18 ]

  

Скачать .torrent

Размер .torrent файла 18 KB


Размер: 446 MB
Хэш (hash) релиза: f6f7692da866b872c73cfcd608a220d5d36433fb

Торренты, похожие на Оркестр Волынщиков Москвы Moscow & District Pipe Band скачать торрент

Форум Название Автор Размер S L Добавлен
Фольклор, Народная и Этническая музыка (mp3) ·· (Celtic Folk) Оркестр Волынщиков Москвы / Moscow & District Pipe Band - 2010, MP3, 128 kbps Galfimbul 2442203723 MB 0 0 1323547274

23:01

10-Дек-11

bot

Топик был перенесен в форум Фольклор, Народная и Этническая музыка (video)

Перенес Galfimbul

Хотите добавить комментарий к записи скачать торрент Оркестр Волынщиков Москвы Moscow & District Pipe Band

!Обратная связь