Скачать через торрент музыку Водка Лимон Vodka Lemon бесплатно без регистрации torrent

Если у вас наблюдаются проблемы со скриншотами, переходом по ссылками, скачиванием торрентов - проблемы в блокировщике рекламы AdBlock. #хорошегоДня!


Статистика раздачи
Размер:  230 MB   |    Зарегистрирован:  5 лет 10 месяцев   |    .torrent скачан:  29 раз   |   
Раздают:  1  
   
Загрузка...
 
Автор Сообщение

Galfimbul

avatar Galfimbul


Водка Лимон | Vodka Lemon

Жанр: Score
Композитор: Michel Korb
Год выпуска диска: 2004
Год выпуска фильма: 2003
Страна-производитель диска: France
Издатель (лейбл): AIM/Wagram Music
Номер по каталогу: 3094252
Аудиокодек: FLAC (*.flac)
Тип рипа: tracks+.cue
Битрейт аудио: lossless
Продолжительность: 00:43:37
Источник: собственный рип
Наличие сканов в содержимом раздачи: да
Треклист:
1. LEnterrement (01:44)
2. Hamo et Nina (02:27)
3. Le Jour Se Leve (03:39)
4. Bus Niet (01:58)
5. Dans La Maison (02:16)
6. Le Cimetierre (01:07)
7. Nina Et Zine (02:08)
8. Envolee (02:15)
9. Dolovan (00:32)
10. Niet Problem (02:02)
11. Approche (01:58)
12. LInconnue (01:19)
13. Apres La Valse (00:47)
14. Coup de Feu (01:11)
15. Chant des Femmes (01:56)
16. Dans la Nuit (00:19)
17. Le Couple (01:37)
18. La Rose (01:13)
19. Retour en Ville (00:43)
20. Zine Pleure (01:50)
21. La Lettre (00:47)
22. Mariage (01:03)
23. Sur la Route (01:36)
24. Improvisation (02:08)
25. Souvenirs (02:15)
26. Tombe la Neige (02:47)
 
Exact Audio Copy V1.0 beta 3 from 29. August 2011

EAC extraction logfile from 17. December 2011, 12:00

Michel Korb / Vodka Lemon

Used drive : PLEXTOR DVDR PX-L890SA Adapter: 1 ID: 1

Read mode : SecureUtilize accurate stream : YesDefeat audio cache : YesMake use of C2 pointers : No

Read offset correction : 6Overread into Lead-In and Lead-Out : NoFill up missing offset samples with silence : YesDelete leading and trailing silent blocks : NoNull samples used in CRC calculations : YesUsed interface : Installed external ASPI interfaceGap handling : Appended to previous track

Used output format : User Defined EncoderSelected bitrate : 1024 kBit/sQuality : HighAdd ID3 tag : NoCommand line compressor : C:\Program Files\Exact Audio Copy\Flac\flac.exeAdditional command line options : -V -8 -T "Genre=%genre%" -T "Artist=%artist%" -T "Title=%title%" -T "Album=%albumtitle%" -T "Date=%year%" -T "Tracknumber=%tracknr%" -T "Comment=%comment%" %source%

TOC of the extracted CD

Track | Start | Length | Start sector | End sector --------------------------------------------------------- 1 | 0:00.00 | 1:44.69 | 0 | 7868 2 | 1:44.69 | 2:27.41 | 7869 | 18934 3 | 4:12.35 | 3:39.41 | 18935 | 35400 4 | 7:52.01 | 1:58.22 | 35401 | 44272 5 | 9:50.23 | 2:16.04 | 44273 | 54476 6 | 12:06.27 | 1:07.51 | 54477 | 59552 7 | 13:14.03 | 2:08.49 | 59553 | 69201 8 | 15:22.52 | 2:15.00 | 69202 | 79326 9 | 17:37.52 | 0:32.33 | 79327 | 81759 10 | 18:10.10 | 2:02.10 | 81760 | 90919 11 | 20:12.20 | 1:58.19 | 90920 | 99788 12 | 22:10.39 | 1:19.08 | 99789 | 105721 13 | 23:29.47 | 0:47.54 | 105722 | 109300 14 | 24:17.26 | 1:11.13 | 109301 | 114638 15 | 25:28.39 | 1:56.39 | 114639 | 123377 16 | 27:25.03 | 0:19.12 | 123378 | 124814 17 | 27:44.15 | 1:37.06 | 124815 | 132095 18 | 29:21.21 | 1:13.68 | 132096 | 137638 19 | 30:35.14 | 0:43.45 | 137639 | 140908 20 | 31:18.59 | 1:50.15 | 140909 | 149173 21 | 33:08.74 | 0:47.45 | 149174 | 152743 22 | 33:56.44 | 1:03.42 | 152744 | 157510 23 | 35:00.11 | 1:36.30 | 157511 | 164740 24 | 36:36.41 | 2:08.01 | 164741 | 174341 25 | 38:44.42 | 2:15.18 | 174342 | 184484 26 | 40:59.60 | 2:47.66 | 184485 | 197075

Track 1

Filename F:\torrent\Vodka Lemon_Michel Korb\score\01 L'Enterrement.wav

Pre-gap length 0:00:02.00

Peak level 58.8 % Extraction speed 3.3 X Track quality 99.8 % Test CRC 9E8B2C8D Copy CRC 9E8B2C8D Track not present in AccurateRip database Copy OK

Track 2

Filename F:\torrent\Vodka Lemon_Michel Korb\score\02 Hamo et Nina.wav

Pre-gap length 0:00:01.00

Peak level 81.0 % Extraction speed 4.7 X Track quality 100.0 % Test CRC 800A7381 Copy CRC 800A7381 Track not present in AccurateRip database Copy OK

Track 3

Filename F:\torrent\Vodka Lemon_Michel Korb\score\03 Le Jour Se Lève.wav

Pre-gap length 0:00:01.00

Peak level 63.7 % Extraction speed 5.5 X Track quality 100.0 % Test CRC 453FA282 Copy CRC 453FA282 Track not present in AccurateRip database Copy OK

Track 4

Filename F:\torrent\Vodka Lemon_Michel Korb\score\04 Bus Niet.wav

Pre-gap length 0:00:01.00

Peak level 55.3 % Extraction speed 5.2 X Track quality 100.0 % Test CRC A0AD1F64 Copy CRC A0AD1F64 Track not present in AccurateRip database Copy OK

Track 5

Filename F:\torrent\Vodka Lemon_Michel Korb\score\05 Dans La Maison.wav

Pre-gap length 0:00:01.00

Peak level 50.7 % Extraction speed 5.5 X Track quality 100.0 % Test CRC 4C0CC91A Copy CRC 4C0CC91A Track not present in AccurateRip database Copy OK

Track 6

Filename F:\torrent\Vodka Lemon_Michel Korb\score\06 Le Cimetierre.wav

Pre-gap length 0:00:01.00

Peak level 42.6 % Extraction speed 3.4 X Track quality 99.8 % Test CRC 690E2ED6 Copy CRC 690E2ED6 Track not present in AccurateRip database Copy OK

Track 7

Filename F:\torrent\Vodka Lemon_Michel Korb\score\07 Nina Et Ziné.wav

Pre-gap length 0:00:01.00

Peak level 74.5 % Extraction speed 5.7 X Track quality 100.0 % Test CRC 1C1F135A Copy CRC 1C1F135A Track not present in AccurateRip database Copy OK

Track 8

Filename F:\torrent\Vodka Lemon_Michel Korb\score\08 Envolée.wav

Pre-gap length 0:00:01.00

Peak level 77.6 % Extraction speed 6.1 X Track quality 100.0 % Test CRC B10F1CA5 Copy CRC B10F1CA5 Track not present in AccurateRip database Copy OK

Track 9

Filename F:\torrent\Vodka Lemon_Michel Korb\score\09 Dolovan.wav

Pre-gap length 0:00:01.00

Peak level 26.3 % Extraction speed 3.6 X Track quality 100.0 % Test CRC 266D3BCF Copy CRC 266D3BCF Track not present in AccurateRip database Copy OK

Track 10

Filename F:\torrent\Vodka Lemon_Michel Korb\score\10 Niet Problem.wav

Pre-gap length 0:00:01.00

Peak level 73.4 % Extraction speed 5.0 X Track quality 99.9 % Test CRC 54A539AD Copy CRC 54A539AD Track not present in AccurateRip database Copy OK

Track 11

Filename F:\torrent\Vodka Lemon_Michel Korb\score\11 Approche.wav

Pre-gap length 0:00:01.00

Peak level 69.1 % Extraction speed 6.3 X Track quality 100.0 % Test CRC 37C7CD6E Copy CRC 37C7CD6E Track not present in AccurateRip database Copy OK

Track 12

Filename F:\torrent\Vodka Lemon_Michel Korb\score\12 L'Inconnue.wav

Pre-gap length 0:00:01.00

Peak level 34.7 % Extraction speed 5.7 X Track quality 100.0 % Test CRC FAA270D8 Copy CRC FAA270D8 Track not present in AccurateRip database Copy OK

Track 13

Filename F:\torrent\Vodka Lemon_Michel Korb\score\13 Après La Valse.wav

Pre-gap length 0:00:01.00

Peak level 49.4 % Extraction speed 4.7 X Track quality 100.0 % Test CRC 6CA6D91D Copy CRC 6CA6D91D Track not present in AccurateRip database Copy OK

Track 14

Filename F:\torrent\Vodka Lemon_Michel Korb\score\14 Coup de Feu.wav

Pre-gap length 0:00:01.00

Peak level 88.8 % Extraction speed 5.6 X Track quality 100.0 % Test CRC FDDB2EFF Copy CRC FDDB2EFF Track not present in AccurateRip database Copy OK

Track 15

Filename F:\torrent\Vodka Lemon_Michel Korb\score\15 Chant des Femmes.wav

Pre-gap length 0:00:02.00

Peak level 36.6 % Extraction speed 5.3 X Track quality 99.9 % Test CRC D8D506B7 Copy CRC D8D506B7 Track not present in AccurateRip database Copy OK

Track 16

Filename F:\torrent\Vodka Lemon_Michel Korb\score\16 Dans la Nuit.wav

Pre-gap length 0:00:01.00

Peak level 27.5 % Extraction speed 3.0 X Track quality 100.0 % Test CRC 0E893057 Copy CRC 0E893057 Track not present in AccurateRip database Copy OK

Track 17

Filename F:\torrent\Vodka Lemon_Michel Korb\score\17 Le Couple.wav

Pre-gap length 0:00:01.00

Peak level 37.7 % Extraction speed 6.5 X Track quality 100.0 % Test CRC 876F4C3C Copy CRC 876F4C3C Track not present in AccurateRip database Copy OK

Track 18

Filename F:\torrent\Vodka Lemon_Michel Korb\score\18 La Rose.wav

Pre-gap length 0:00:01.00

Peak level 40.0 % Extraction speed 5.9 X Track quality 100.0 % Test CRC 79879AC1 Copy CRC 79879AC1 Track not present in AccurateRip database Copy OK

Track 19

Filename F:\torrent\Vodka Lemon_Michel Korb\score\19 Retour en Ville.wav

Pre-gap length 0:00:01.00

Peak level 59.2 % Extraction speed 5.0 X Track quality 100.0 % Test CRC 2790943A Copy CRC 2790943A Track not present in AccurateRip database Copy OK

Track 20

Filename F:\torrent\Vodka Lemon_Michel Korb\score\20 Ziné Pleure.wav

Pre-gap length 0:00:01.00

Peak level 51.6 % Extraction speed 5.5 X Track quality 99.9 % Test CRC D17622F5 Copy CRC D17622F5 Track not present in AccurateRip database Copy OK

Track 21

Filename F:\torrent\Vodka Lemon_Michel Korb\score\21 La Lettre.wav

Pre-gap length 0:00:01.00

Peak level 51.2 % Extraction speed 5.2 X Track quality 100.0 % Test CRC BBE02417 Copy CRC BBE02417 Track not present in AccurateRip database Copy OK

Track 22

Filename F:\torrent\Vodka Lemon_Michel Korb\score\22 Mariage.wav

Pre-gap length 0:00:01.00

Peak level 72.9 % Extraction speed 6.0 X Track quality 100.0 % Test CRC 8C5843AC Copy CRC 8C5843AC Track not present in AccurateRip database Copy OK

Track 23

Filename F:\torrent\Vodka Lemon_Michel Korb\score\23 Sur la Route.wav

Pre-gap length 0:00:01.00

Peak level 82.8 % Extraction speed 6.9 X Track quality 100.0 % Test CRC 1949869D Copy CRC 1949869D Track not present in AccurateRip database Copy OK

Track 24

Filename F:\torrent\Vodka Lemon_Michel Korb\score\24 Improvisation.wav

Pre-gap length 0:00:01.00

Peak level 66.8 % Extraction speed 7.5 X Track quality 100.0 % Test CRC 044B432F Copy CRC 044B432F Track not present in AccurateRip database Copy OK

Track 25

Filename F:\torrent\Vodka Lemon_Michel Korb\score\25 Souvenirs.wav

Pre-gap length 0:00:01.00

Peak level 44.8 % Extraction speed 7.9 X Track quality 100.0 % Test CRC EFD97ED5 Copy CRC EFD97ED5 Track not present in AccurateRip database Copy OK

Track 26

Filename F:\torrent\Vodka Lemon_Michel Korb\score\26 Tombe la Neige.wav

Pre-gap length 0:00:00.74

Peak level 69.7 % Extraction speed 8.3 X Track quality 100.0 % Test CRC 24C39B79 Copy CRC 24C39B79 Track not present in AccurateRip database Copy OK

None of the tracks are present in the AccurateRip database

No errors occurred

End of status report

==== Log checksum 0B37868E1DC90B57BF4466D6415855231E4212D26E5ED8FBBAEF68DDB6617706 ====
 
REM GENRE SoundtrackREM DATE 2004REM DISCID 660A431AREM COMMENT "ExactAudioCopy v1.0b3"PERFORMER "Michel Korb"TITLE "Vodka Lemon"FILE "01 L'Enterrement.wav" WAVE TRACK 01 AUDIO TITLE "L'Enterrement" PERFORMER "Michel Korb" INDEX 01 00:00:00 TRACK 02 AUDIO TITLE "Hamo et Nina" PERFORMER "Michel Korb" INDEX 00 01:43:69FILE "02 Hamo et Nina.wav" WAVE INDEX 01 00:00:00 TRACK 03 AUDIO TITLE "Le Jour Se Leve" PERFORMER "Michel Korb" INDEX 00 02:26:41FILE "03 Le Jour Se Leve.wav" WAVE INDEX 01 00:00:00 TRACK 04 AUDIO TITLE "Bus Niet" PERFORMER "Michel Korb" INDEX 00 03:38:41FILE "04 Bus Niet.wav" WAVE INDEX 01 00:00:00 TRACK 05 AUDIO TITLE "Dans La Maison" PERFORMER "Michel Korb" INDEX 00 01:57:22FILE "05 Dans La Maison.wav" WAVE INDEX 01 00:00:00 TRACK 06 AUDIO TITLE "Le Cimetierre" PERFORMER "Michel Korb" INDEX 00 02:15:04FILE "06 Le Cimetierre.wav" WAVE INDEX 01 00:00:00 TRACK 07 AUDIO TITLE "Nina Et Zine" PERFORMER "Michel Korb" INDEX 00 01:06:51FILE "07 Nina Et Zine.wav" WAVE INDEX 01 00:00:00 TRACK 08 AUDIO TITLE "Envolee" PERFORMER "Michel Korb" INDEX 00 02:07:49FILE "08 Envolee.wav" WAVE INDEX 01 00:00:00 TRACK 09 AUDIO TITLE "Dolovan" PERFORMER "Michel Korb" INDEX 00 02:14:00FILE "09 Dolovan.wav" WAVE INDEX 01 00:00:00 TRACK 10 AUDIO TITLE "Niet Problem" PERFORMER "Michel Korb" INDEX 00 00:31:33FILE "10 Niet Problem.wav" WAVE INDEX 01 00:00:00 TRACK 11 AUDIO TITLE "Approche" PERFORMER "Michel Korb" INDEX 00 02:01:10FILE "11 Approche.wav" WAVE INDEX 01 00:00:00 TRACK 12 AUDIO TITLE "L'Inconnue" PERFORMER "Michel Korb" INDEX 00 01:57:19FILE "12 L'Inconnue.wav" WAVE INDEX 01 00:00:00 TRACK 13 AUDIO TITLE "Apres La Valse" PERFORMER "Michel Korb" INDEX 00 01:18:08FILE "13 Apres La Valse.wav" WAVE INDEX 01 00:00:00 TRACK 14 AUDIO TITLE "Coup de Feu" PERFORMER "Michel Korb" INDEX 00 00:46:54FILE "14 Coup de Feu.wav" WAVE INDEX 01 00:00:00 TRACK 15 AUDIO TITLE "Chant des Femmes" PERFORMER "Michel Korb" INDEX 00 01:09:13FILE "15 Chant des Femmes.wav" WAVE INDEX 01 00:00:00 TRACK 16 AUDIO TITLE "Dans la Nuit" PERFORMER "Michel Korb" INDEX 00 01:55:39FILE "16 Dans la Nuit.wav" WAVE INDEX 01 00:00:00 TRACK 17 AUDIO TITLE "Le Couple" PERFORMER "Michel Korb" INDEX 00 00:18:12FILE "17 Le Couple.wav" WAVE INDEX 01 00:00:00 TRACK 18 AUDIO TITLE "La Rose" PERFORMER "Michel Korb" INDEX 00 01:36:06FILE "18 La Rose.wav" WAVE INDEX 01 00:00:00 TRACK 19 AUDIO TITLE "Retour en Ville" PERFORMER "Michel Korb" INDEX 00 01:12:68FILE "19 Retour en Ville.wav" WAVE INDEX 01 00:00:00 TRACK 20 AUDIO TITLE "Zine Pleure" PERFORMER "Michel Korb" INDEX 00 00:42:45FILE "20 Zine Pleure.wav" WAVE INDEX 01 00:00:00 TRACK 21 AUDIO TITLE "La Lettre" PERFORMER "Michel Korb" INDEX 00 01:49:15FILE "21 La Lettre.wav" WAVE INDEX 01 00:00:00 TRACK 22 AUDIO TITLE "Mariage" PERFORMER "Michel Korb" INDEX 00 00:46:45FILE "22 Mariage.wav" WAVE INDEX 01 00:00:00 TRACK 23 AUDIO TITLE "Sur la Route" PERFORMER "Michel Korb" INDEX 00 01:02:42FILE "23 Sur la Route.wav" WAVE INDEX 01 00:00:00 TRACK 24 AUDIO TITLE "Improvisation" PERFORMER "Michel Korb" INDEX 00 01:35:30FILE "24 Improvisation.wav" WAVE INDEX 01 00:00:00 TRACK 25 AUDIO TITLE "Souvenirs" PERFORMER "Michel Korb" INDEX 00 02:07:01FILE "25 Souvenirs.wav" WAVE INDEX 01 00:00:00 TRACK 26 AUDIO TITLE "Tombe la Neige" PERFORMER "Michel Korb" INDEX 00 02:14:19FILE "26 Tombe la Neige.wav" WAVE INDEX 01 00:00:00


Трекер:  [ 02-Фев-2012 21:43 ]

  

Скачать .torrent

Размер .torrent файла 20 KB


Размер: 230 MB
Хэш (hash) релиза: 760e462f4d72df61f6f658a42d3af0b7662461d4

bot

Топик был перенесен в форум Саундтреки к фильмам и мультфильмам (lossless)

Перенес Galfimbul

Хотите добавить комментарий к записи скачать торрент Водка Лимон Vodka Lemon

!Обратная связь