Скачать через торрент музыку John Browns Body - Live at SouthPaw бесплатно без регистрации torrent

Если у вас наблюдаются проблемы со скриншотами, переходом по ссылками, скачиванием торрентов - проблемы в блокировщике рекламы AdBlock. #хорошегоДня!


Статистика раздачи
Размер:  578 MB   |    Зарегистрирован:  5 лет 9 месяцев   |    .torrent скачан:  30 раз   |   
Раздают:  1  
   
Загрузка...
 
Автор Сообщение

_N_

avatar _N_


John Brown's Body - Live at SouthPaw

Страна: USA
Жанр: Modern Reggae, Dub, Electronic
Продолжительность: 1:30:00 min
Год выпуска: 2008 г.
01. Ameliorate
02. Resonate
03. Into Shadow
04. Shake The Dice
05. Guvna Dub
05. Struggling
06. Speak Of The Devil
07. Push Some Air
08. Sock Dub
09. Amplify
10. What We Gonna Do
11. Zion Triad
12. Be At Peace
13. 33 RPM
Формат : MPEG-4
Профиль формата : Base Media / Version 2
Идентификатор кодека : mp42
Размер файла : 578 Мбайт
Продолжительность : 1 ч. 30 м.
Общий поток : 898 Кбит/сек
Дата кодирования : UTC 2010-03-08 01:29:54
Дата пометки : UTC 2010-03-08 01:29:54

Видео
Идентификатор : 1
Формат : AVC
Формат/Информация : Advanced Video Codec
Профиль формата : Main@L3.1
Параметр CABAC формата : Да
Параметр ReFrames формата : 4 кадра
Идентификатор кодека : avc1
Идентификатор кодека/Информация : Advanced Video Coding
Продолжительность : 1 ч. 30 м.
Вид битрейта : Переменный
Битрейт : 768 Кбит/сек
Максимальный битрейт : 1500 Кбит/сек
Ширина : 768 пикселей
Высота : 432 пикселя
Соотношение сторон : 16:9
Режим частоты кадров : Постоянный
Частота кадров : 29,970 кадров/сек
Стандарт вещания : NTSC
Цветовое пространство : YUV
Субдискретизация насыщенности : 4:2:0
Битовая глубина : 8 бит
Тип развёртки : Чересстрочная
Порядок развёртки : Нижнее поле первое
Бит/(Пиксели*Кадры) : 0.077
Размер потока : 494 Мбайт (86%)
Язык : English
Дата кодирования : UTC 2010-03-08 01:29:54
Дата пометки : UTC 2010-03-08 01:29:54

Аудио
Идентификатор : 2
Формат : AAC
Формат/Информация : Advanced Audio Codec
Профиль формата : LC
Идентификатор кодека : 40
Продолжительность : 1 ч. 30 м.
Вид битрейта : Переменный
Битрейт : 125 Кбит/сек
Максимальный битрейт : 210 Кбит/сек
Каналы : 2 канала
Расположение каналов : Front: L R
Частота : 48,0 КГц
Метод сжатия : С потерями
Размер потока : 80,7 Мбайт (14%)
Язык : English
Дата кодирования : UTC 2010-03-08 01:29:54
Дата пометки : UTC 2010-03-08 01:29:54
Material_Duration : 5401067
Material_StreamSize : 84644843
Качество: MPEG-4
Контейнер: Base Media / Version 2
Видео кодек: AVC
Аудио кодек: AAC
Видео: English, 768 Кбит/сек, 768*432 (16:9), в 29, 970 кадров/сек, AVC (NTSC) (Main@L3.1) (CABAC / 4 Ref Frames)
Аудио: English, 125 Кбит/сек, 48,0 КГц, 2 канала, AAC (LC)

Трекер:  [ 02-Янв-2012 22:36 ]

  

Скачать .torrent

Размер .torrent файла 11 KB


Размер: 578 MB
Хэш (hash) релиза: bdf74d67276876e3c38a9ccfb1d652e82104e46e

bot

Топик был перенесен в форум Reggae, Ska, Dub (video)

Перенес Ronaldo C

Хотите добавить комментарий к записи скачать торрент John Browns Body - Live at SouthPaw

!Обратная связь