Скачать через торрент музыку Daily Mirror Collection: The Best of... Move tunes and TV music бесплатно без регистрации torrent

Если у вас наблюдаются проблемы со скриншотами, переходом по ссылками, скачиванием торрентов - проблемы в блокировщике рекламы AdBlock. #хорошегоДня!


Статистика раздачи
Размер:  619 MB   |    Зарегистрирован:  5 лет 9 месяцев   |    .torrent скачан:  25 раз   |   
Раздают:  1  
   
Загрузка...
 
Автор Сообщение

Galfimbul

avatar Galfimbul


Daily Mirror Collection
The Best of... Move tunes and TV music
Жанр: Soundtrack
Год выпуска диска: 2005
Страна-производитель диска: UK
Издатель (лейбл): Trinity Mirror
Номер по каталогу: DMB0CD02/DMBOCD03
Аудиокодек: APE (*.ape)
Тип рипа: image+.cue
Битрейт аудио: lossless
ПОбщая продолжительность: 02:03:03
Источник: собственный рип
Наличие сканов в содержимом раздачи: да
Трэклист:

01 Sam & Dave – Soul Man
Written-By – Hayes / Porter 2:38
02 Ben E. King – Stand By Me
Written-By – King, Lieber / Stoller 3:00
03 Toni Basil – Mickey
Written-By – Chinn / Chapman 4:12
04 Republica – Drop Dead Gorgeous
Written-By – Andrew Todd, Jonny Male, Saffron, Tim Dorney 4:34
05 Capella Istropolitana – Concerto Grosso Op. 6
Written By – Handel 3:46
06 Chen Pi-Hsien – Aria From The Goldberg Variations
Written By – Bach 3:18
07 Klara Kormendi – Gymnopedie No.1
Written By – Satie 4:07
08 Capella Istropolitana – Orchestral Suite No.2 In B Minor
Written By – Bach 2:57
09 Takako Nishizaki – Four Seasons - Spring
Written By – Vivaldi 3:34
10 Jeno Jando – Piano Sonata No.11 (1st Movement)
Written By – Mozart 14:31
11 Slovak PO – Intermezzo From Carmen
Written By – Bizet 2:37
12 The Scholars Baroque Ensemble – Hallelujah Chorus
Written By – Handel 3:41
13 Idil Biret – Farewell Waltz
Written By – Chopin 5:03
14 Slovak State PO – The Blue Danube Waltz
Written By – Strauss 5:48
15 Bertalan Hock – Sheep May Safely Graze
Written By – Bach 1:38
Filmog.
1.01 Blues Brothers (Landis)
1.02 Stand By Me (Reiner)
1.03 Wayne's World (Spheeris)
1.04 Scream (Craven)
1.05 Pirates Of The Caribbean (Verbinski)
1.06 English Patient, The (Minghella)
1.07 What Lies Beneath (Zemeckis)
1.08 Spider-Man 2 (Ramis)
1.09 Spy Game (Scott)
1.10 A Beautiful Mind (Howard)
1.11 There's Something About Bizet (Farellys)
1.12 Face/Off (Woo)
1.13 Others, The (Amenábar)
1.14 2001: A Space Odyssey (Kubrick)
1.15 Frankie & Johnny (Marshall)
 
Exact Audio Copy V0.99 prebeta 5 from 4. May 2009

Отчёт EAC об извлечении, выполненном 16. декабря 2011, 15:19

Various / The Best of... Movie tunes vol.1

Дисковод: TSSTcorpCDDVDW SH-S223C Adapter: 3 ID: 0

Режим чтения : ДостоверностьИспользование точного потока : ДаОтключение кэша аудио : ДаИспользование указателей C2 : Нет

Коррекция смещения при чтении : 697Способность читать области Lead-in и Lead-out : НетЗаполнение пропущенных сэмплов тишиной : ДаУдаление блоков с тишиной в начале и конце : НетПри вычислениях CRC использовались нулевые сэмплы : ДаИнтерфейс : Установленный внешний ASPI-интерфейс

Выходной формат : Внутренние WAV-операцииФормат сэмплов : 44.100 Гц; 16 бит; стерео

TOC извлечённого CD

Трек | Старт | Длительность | Начальный сектор | Конечный сектор --------------------------------------------------------------------- 1 | 0:00.00 | 2:38.27 | 0 | 11876 2 | 2:38.27 | 2:59.65 | 11877 | 25366 3 | 5:38.17 | 4:11.60 | 25367 | 44251 4 | 9:50.02 | 4:34.12 | 44252 | 64813 5 | 14:24.14 | 3:45.64 | 64814 | 81752 6 | 18:10.03 | 3:18.35 | 81753 | 96637 7 | 21:28.38 | 4:06.66 | 96638 | 115153 8 | 25:35.29 | 2:56.64 | 115154 | 128417 9 | 28:32.18 | 3:34.23 | 128418 | 144490 10 | 32:06.41 | 14:31.27 | 144491 | 209842 11 | 46:37.68 | 2:36.47 | 209843 | 221589 12 | 49:14.40 | 3:40.73 | 221590 | 238162 13 | 52:55.38 | 5:02.44 | 238163 | 260856 14 | 57:58.07 | 5:48.32 | 260857 | 286988 15 | 63:46.39 | 1:38.36 | 286989 | 294374

Характеристики диапазона извлечения и сообщения об ошибках

Выбранный диапазон

Имя файла D:\torrent razdacha\[VA] Daily Mirror Collection - The Best of... [2CD] - 2005 (lossless)\01. The Best of... Movie tunes vol.1\Various - The Best of... Movie tunes vol.1.wav

Пиковый уровень 100.0 % Качество диапазона 99.9 % CRC теста D18579F3 CRC копии D18579F3 Копирование... OK

Ошибок не произошло

AccurateRip: сводка

Трек 1 точное извлечение (доверие 4) [2F2C8DAD]Трек 2 точное извлечение (доверие 4) [40A6C8F0]Трек 3 точное извлечение (доверие 5) [CD7E0D53]Трек 4 точное извлечение (доверие 4) [C5F97172]Трек 5 точное извлечение (доверие 5) [A4EC8762]Трек 6 точное извлечение (доверие 5) [4BF8E5B0]Трек 7 точное извлечение (доверие 5) [717B0D15]Трек 8 точное извлечение (доверие 5) [86144D6E]Трек 9 точное извлечение (доверие 4) [4B05F2BC]Трек 10 точное извлечение (доверие 5) [A867BF08]Трек 11 точное извлечение (доверие 5) [EC2ED85C]Трек 12 точное извлечение (доверие 5) [CCF5C772]Трек 13 точное извлечение (доверие 5) [175870C6]Трек 14 точное извлечение (доверие 5) [A6B94878]Трек 15 точное извлечение (доверие 5) [534FDA8E]

Все треки извлечены точно

Конец отчёта
 
REM GENRE SoundtrackREM DATE 2005REM DISCID E40F550FREM COMMENT "ExactAudioCopy v0.99pb5"PERFORMER "Various"TITLE "The Best of... Movie tunes vol.1"FILE "Various - The Best of... Movie tunes vol.1.ape" WAVE TRACK 01 AUDIO TITLE "Soul Man" PERFORMER "Sam & Dave" INDEX 01 00:00:00 TRACK 02 AUDIO TITLE "Stand By Me" PERFORMER "Ben E. King" INDEX 00 02:36:27 INDEX 01 02:38:27 TRACK 03 AUDIO TITLE "Mickey" PERFORMER "Toni Basil" INDEX 00 05:36:17 INDEX 01 05:38:17 TRACK 04 AUDIO TITLE "Drop Dead Gorgeous" PERFORMER "Republica" INDEX 00 09:48:02 INDEX 01 09:50:02 TRACK 05 AUDIO TITLE "Concerto Grosso Op. 6" PERFORMER "Capella Istropolitana" INDEX 00 14:20:14 INDEX 01 14:24:14 TRACK 06 AUDIO TITLE "Aria From The Goldberg Variations" PERFORMER "Chen Pi-Hsien" INDEX 00 18:06:03 INDEX 01 18:10:03 TRACK 07 AUDIO TITLE "Gymnopedie No.1" PERFORMER "Klara Kormendi" INDEX 00 21:24:38 INDEX 01 21:28:38 TRACK 08 AUDIO TITLE "Orchestral Suite No.2 In B Minor" PERFORMER "Capella Istropolitana" INDEX 00 25:31:29 INDEX 01 25:35:29 TRACK 09 AUDIO TITLE "Four Seasons - Spring" PERFORMER "Takako Nishizaki" INDEX 00 28:28:18 INDEX 01 28:32:18 TRACK 10 AUDIO TITLE "Piano Sonata No.11 (1st Movement)" PERFORMER "Jeno Jando" INDEX 00 32:02:41 INDEX 01 32:06:41 TRACK 11 AUDIO TITLE "Intermezzo From Carmen" PERFORMER "Slovak PO" INDEX 00 46:33:68 INDEX 01 46:37:68 TRACK 12 AUDIO TITLE "Hallelujah Chorus" PERFORMER "The Scholars Baroque Ensemble" INDEX 00 49:10:40 INDEX 01 49:14:40 TRACK 13 AUDIO TITLE "Farewell Waltz" PERFORMER "Idil Biret" INDEX 00 52:51:38 INDEX 01 52:55:38 TRACK 14 AUDIO TITLE "The Blue Danube Waltz" PERFORMER "Slovak State PO" INDEX 00 57:54:07 INDEX 01 57:58:07 TRACK 15 AUDIO TITLE "Sheep May Safely Graze" PERFORMER "Bertalan Hock" INDEX 00 63:42:39 INDEX 01 63:46:39
 
AUDIOCHECKER v2.0 beta (build 457) - by Dester - opdester@freemail.hu~~~~~~~~~~~~~~~~~~~~~~~~~~~~~~~~~~

Начато: пятница, 16. 12. 2011. - 15:34.19Найдено файлов: 1

1 -===- D:\torrent razdacha\[VA] Daily Mirror Collection - The Best of... [2CD] - 2005 (lossless)\01. The Best of... Movie tunes vol.1\Various - The Best of... Movie tunes vol.1.ape Извлечение успешно выполнено Заключение: этот трек - CDDA с вероятностью 100% Временный файл удалён.

Завершено: пятница, 16. 12. 2011. - 15:39.16 (Время операции: 0:04.56)
Трэклист:

01 Bill Haley And The Comets – Rock Around The Clock
Written-By – De Knight, Freedman 2:13
02 Mary Wells – My Guy
Written-By – Robinson 2:52
03 Alabama 3 – Woke Up This Morning
Featuring – Street Angels Choir NYC
Written-By – Love, Love, Very Reverend Dr. D. Wayne Love, Love 5:18
04 Robson & Jerome – Unchained Melody
Written-By – North, Zaret 3:24
05 Tchaikovsky – Dance Of The Sugar Plum Fairy
Performer – Slovak RSO
Conductor – Ondrej Lenard 1:52
06 Delibes – The Flower Duet
Soprano Vocals – Adriana Kohutkova, Denisa Slepkovska
Performer – Slovak RSO
Conductor – Johannes Wildner 1:45
07 Mozart – Divertimento, No.1, Andante
Bassoon – Koji Okazaki
Clarinet – Kalman Berkes, Tomoko Takashima 2:56
08 Rossini – William Tell Overture
Performer – Zagreb Festival Orchestra
Conductor – Michael Halasz 5:13
09 Fauré – Requiem - In Paradisum
Performer – Oxford Camerata, Schola Cantorum of Oxford
Conductor – Jeremy Summerly 3:24
10 Bach – Brandenburg Concerto No. 2 In F Major
Performer – Cologne Chamber Orchestra
Conductor – Helmut Muller-Bruh 4:06
11 Handel – Zadok The Priest
Performer – Royal Academy Consort, Tallis Chamber Choir
Conductor – Jeremy Summerly 5:47
12 Elgar – Land Of Hope And Glory (Pomp And Circumstance March No. 1)
Performer – English Northern Philharmonia, Leeds Festival Chorus
Conductor – Paul Daniel 5:58
13 Bach – Cello Suite No.2
Cello – Alexander Rubin 2:08
14 Mozart – Requiem: Lacrymosa
Performer – Slovak PO
Conductor – Zdenek Kosler 3:24
15 Saint-Saens – Danse Macabre
Performer – Slovak PO
Conductor – Keith Clark (3) 7:10
 
Exact Audio Copy V0.99 prebeta 5 from 4. May 2009

Отчёт EAC об извлечении, выполненном 16. декабря 2011, 17:19

Various / The Best of... TV music

Дисковод: TSSTcorpCDDVDW SH-S223C Adapter: 3 ID: 0

Режим чтения : ДостоверностьИспользование точного потока : ДаОтключение кэша аудио : ДаИспользование указателей C2 : Нет

Коррекция смещения при чтении : 697Способность читать области Lead-in и Lead-out : НетЗаполнение пропущенных сэмплов тишиной : ДаУдаление блоков с тишиной в начале и конце : НетПри вычислениях CRC использовались нулевые сэмплы : ДаИнтерфейс : Установленный внешний ASPI-интерфейс

Выходной формат : Внутренние WAV-операцииФормат сэмплов : 44.100 Гц; 16 бит; стерео

TOC извлечённого CD

Трек | Старт | Длительность | Начальный сектор | Конечный сектор --------------------------------------------------------------------- 1 | 0:00.00 | 2:13.24 | 0 | 9998 2 | 2:13.24 | 2:52.55 | 9999 | 22953 3 | 5:06.04 | 5:18.45 | 22954 | 46848 4 | 10:24.49 | 3:24.63 | 46849 | 62211 5 | 13:49.37 | 1:52.03 | 62212 | 70614 6 | 15:41.40 | 1:45.63 | 70615 | 78552 7 | 17:27.28 | 2:56.65 | 78553 | 91817 8 | 20:24.18 | 5:13.01 | 91818 | 115293 9 | 25:37.19 | 3:24.62 | 115294 | 130655 10 | 29:02.06 | 4:06.71 | 130656 | 149176 11 | 33:09.02 | 5:47.66 | 149177 | 175267 12 | 38:56.68 | 5:58.14 | 175268 | 202131 13 | 44:55.07 | 2:08.56 | 202132 | 211787 14 | 47:03.63 | 3:24.73 | 211788 | 227160 15 | 50:28.61 | 7:10.09 | 227161 | 259419

Характеристики диапазона извлечения и сообщения об ошибках

Выбранный диапазон

Имя файла D:\torrent razdacha\[VA] Daily Mirror Collection - The Best of... [2CD] - 2005 (lossless)\02. The Best of... TV music\Various - The Best of... TV music.wav

Пиковый уровень 100.0 % Качество диапазона 100.0 % CRC теста 5961AD4A CRC копии 5961AD4A Копирование... OK

Ошибок не произошло

AccurateRip: сводка

Трек 1 точное извлечение (доверие 4) [BAE1C3AD]Трек 2 точное извлечение (доверие 4) [204CFE98]Трек 3 точное извлечение (доверие 4) [87A6C329]Трек 4 точное извлечение (доверие 4) [3C988DC8]Трек 5 точное извлечение (доверие 5) [D4542637]Трек 6 точное извлечение (доверие 5) [B5154E6F]Трек 7 точное извлечение (доверие 4) [622611FC]Трек 8 точное извлечение (доверие 4) [5BA5BF7A]Трек 9 точное извлечение (доверие 3) [196CC087]Трек 10 точное извлечение (доверие 3) [668F2FF7]Трек 11 точное извлечение (доверие 3) [424ADFEB]Трек 12 точное извлечение (доверие 3) [BF51DA75]Трек 13 точное извлечение (доверие 3) [B4F5AF94]Трек 14 точное извлечение (доверие 3) [BAE85F43]Трек 15 точное извлечение (доверие 3) [6EE094E3]

Все треки извлечены точно

Конец отчёта
 
REM GENRE SoundtrackREM DATE 2005REM DISCID CE0D820FREM COMMENT "ExactAudioCopy v0.99pb5"PERFORMER "Various"TITLE "The Best of... TV music"FILE "Various - The Best of... TV music.ape" WAVE TRACK 01 AUDIO TITLE "Rock Around The Clock" PERFORMER "Bill Haley And The Comets" INDEX 01 00:00:00 TRACK 02 AUDIO TITLE "My Guy" PERFORMER "Mary Wells" INDEX 00 02:11:24 INDEX 01 02:13:24 TRACK 03 AUDIO TITLE "Woke Up This Morning" PERFORMER "Alabama 3" INDEX 00 05:04:04 INDEX 01 05:06:04 TRACK 04 AUDIO TITLE "Unchained Melody" PERFORMER "Robson & Jerome" INDEX 00 10:22:49 INDEX 01 10:24:49 TRACK 05 AUDIO TITLE "Dance Of The Sugar Plum Fairy" PERFORMER "Slovak RSO" INDEX 00 13:44:37 INDEX 01 13:49:37 TRACK 06 AUDIO TITLE "The Flower Duet" PERFORMER "Slovak RSO" INDEX 00 15:36:40 INDEX 01 15:41:40 TRACK 07 AUDIO TITLE "Divertimento, No.1, Andante" PERFORMER "Koji Okazaki" INDEX 00 17:22:28 INDEX 01 17:27:28 TRACK 08 AUDIO TITLE "William Tell Overture" PERFORMER "Zagreb Festival Orchestra" INDEX 00 20:19:18 INDEX 01 20:24:18 TRACK 09 AUDIO TITLE "Requiem - In Paradisum" PERFORMER "Oxford Camerata, Schola Cantorum of Oxford" INDEX 00 25:32:19 INDEX 01 25:37:19 TRACK 10 AUDIO TITLE "Brandenburg Concerto No. 2 In F Major" PERFORMER "Cologne Chamber Orchestra" INDEX 00 28:57:06 INDEX 01 29:02:06 TRACK 11 AUDIO TITLE "Zadok The Priest" PERFORMER "Royal Academy Consort, Tallis Chamber Choir" INDEX 00 33:04:02 INDEX 01 33:09:02 TRACK 12 AUDIO TITLE "Land Of Hope And Glory (Pomp And Circumstance March No. 1)" PERFORMER "English Northern Philharmonia, Leeds Festival Chorus" INDEX 00 38:51:68 INDEX 01 38:56:68 TRACK 13 AUDIO TITLE "Cello Suite No.2" PERFORMER "Alexander Rubin" INDEX 00 44:50:07 INDEX 01 44:55:07 TRACK 14 AUDIO TITLE "Requiem: Lacrymosa" PERFORMER "Slovak PO" INDEX 00 46:58:63 INDEX 01 47:03:63 TRACK 15 AUDIO TITLE "Danse Macabre" PERFORMER "Slovak PO" INDEX 00 50:23:61 INDEX 01 50:28:61
 
AUDIOCHECKER v2.0 beta (build 457) - by Dester - opdester@freemail.hu~~~~~~~~~~~~~~~~~~~~~~~~~~~~~~~~~~

Начато: пятница, 16. 12. 2011. - 17:32.03Найдено файлов: 1

1 -===- D:\torrent razdacha\[VA] Daily Mirror Collection - The Best of... [2CD] - 2005 (lossless)\02. The Best of... TV music\Various - The Best of... TV music.wav Заключение: этот трек - CDDA с вероятностью 100%

Завершено: пятница, 16. 12. 2011. - 17:35.43 (Время операции: 0:03.39)
Free with British newspaper The Daily Mirror.

Трекер:  [ 17-Дек-2011 22:19 ]

  

Скачать .torrent

Размер .torrent файла 14 KB


Размер: 619 MB
Хэш (hash) релиза: ca02526425437f4b1b48c58972529901b6d911e2

bot

Топик был перенесен в форум Саундтреки к фильмам и мультфильмам (lossless)

Перенес Mos

Хотите добавить комментарий к записи скачать торрент Daily Mirror Collection: The Best of... Move tunes and TV music

!Обратная связь