Скачать через торрент музыку Черная книга Black Book бесплатно без регистрации torrent

Если у вас наблюдаются проблемы со скриншотами, переходом по ссылками, скачиванием торрентов - проблемы в блокировщике рекламы AdBlock. #хорошегоДня!


Статистика раздачи
Размер:  363 MB   |    Зарегистрирован:  5 лет 9 месяцев   |    .torrent скачан:  29 раз   |   
Раздают:  1  
   
Загрузка...
 
Автор Сообщение

Galfimbul

avatar Galfimbul


Черная книга | Black Book (Zwartboek)

Жанр: Score
Композитор: Anne Dudley
Год выпуска диска: 2006
Страна-производитель диска: EU
Издатель (лейбл): Milan Records
Номер по каталогу: 399 051-2
Аудиокодек: FLAC (*.flac)
Тип рипа: tracks+.cue
Битрейт аудио: lossless
Продолжительность: 00:55:36
Источник: собственный рип
Наличие сканов в содержимом раздачи: да

Треклист:
1. A Hundred Years From Today (02:15)
Performed by Carice Van Houten
2. Ich bin die fesche Lola [Live] (00:56)
Performed by Carice Van Houten
3. Ja, das ist meine Melodie (03:22)
Performed by Carice Van Houten
4. Ich tanze mit Dir in der Himmel hinein (03:30)
Performed by Carice Van Houten
5. Rachel's Theme (01:28)
6. The Black Book (02:18)
7. Escape Through The Marshes (02:42)
8. In Pursuit (03:03)
9. Rachel's Plan (01:38)
10. In Too Deep (01:56)
11. Shot At Dawn (02:00)
12. Sleeping With The Enemy (03:01)
13. Escape Plans (03:01)
14. The Insider (01:57)
15. Falling Into The Trap (01:45)
16. Confessions Of The Night (03:13)
17. Escape By Sea (01:33)
18. A Hero Of The Resistance (03:19)
19. Intelligence Gathering (02:05)
20. Rumours Of Liberation (02:16)
21. Victims Of The Occupation (01:34)
22. Rachel's Retribution (04:40)
23. The Endless River (02:04)
 
Exact Audio Copy V1.0 beta 3 from 29. August 2011

EAC extraction logfile from 14. December 2011, 15:36

Anne Dudley / Black Book

Used drive : PLEXTOR DVDR PX-L890SA Adapter: 1 ID: 1

Read mode : SecureUtilize accurate stream : YesDefeat audio cache : YesMake use of C2 pointers : No

Read offset correction : 6Overread into Lead-In and Lead-Out : NoFill up missing offset samples with silence : YesDelete leading and trailing silent blocks : NoNull samples used in CRC calculations : YesUsed interface : Installed external ASPI interfaceGap handling : Appended to previous track

Used output format : User Defined EncoderSelected bitrate : 1024 kBit/sQuality : HighAdd ID3 tag : NoCommand line compressor : C:\Program Files\Exact Audio Copy\Flac\flac.exeAdditional command line options : -V -8 -T "Genre=%genre%" -T "Artist=%artist%" -T "Title=%title%" -T "Album=%albumtitle%" -T "Date=%year%" -T "Tracknumber=%tracknr%" -T "Comment=%comment%" %source%

TOC of the extracted CD

Track | Start | Length | Start sector | End sector --------------------------------------------------------- 1 | 0:00.00 | 2:15.61 | 0 | 10185 2 | 2:15.61 | 0:56.20 | 10186 | 14405 3 | 3:12.06 | 3:23.52 | 14406 | 29682 4 | 6:35.58 | 3:32.07 | 29683 | 45589 5 | 10:07.65 | 1:28.38 | 45590 | 52227 6 | 11:36.28 | 2:18.50 | 52228 | 62627 7 | 13:55.03 | 2:42.07 | 62628 | 74784 8 | 16:37.10 | 3:03.01 | 74785 | 88510 9 | 19:40.11 | 1:38.60 | 88511 | 95920 10 | 21:18.71 | 1:56.34 | 95921 | 104654 11 | 23:15.30 | 2:00.18 | 104655 | 113672 12 | 25:15.48 | 3:01.08 | 113673 | 127255 13 | 28:16.56 | 3:01.40 | 127256 | 140870 14 | 31:18.21 | 1:57.61 | 140871 | 149706 15 | 33:16.07 | 1:45.73 | 149707 | 157654 16 | 35:02.05 | 3:13.09 | 157655 | 172138 17 | 38:15.14 | 1:33.39 | 172139 | 179152 18 | 39:48.53 | 3:19.60 | 179153 | 194137 19 | 43:08.38 | 2:05.59 | 194138 | 203571 20 | 45:14.22 | 2:16.08 | 203572 | 213779 21 | 47:30.30 | 1:34.52 | 213780 | 220881 22 | 49:05.07 | 4:40.65 | 220882 | 241946 23 | 53:45.72 | 2:04.66 | 241947 | 251312

Track 1

Filename F:\torrent\Black Book_Anne Dudley\score\01 A hundred years from today.wav

Pre-gap length 0:00:02.00

Peak level 59.2 % Extraction speed 4.3 X Track quality 100.0 % Test CRC 892CC9CE Copy CRC 892CC9CE Accurately ripped (confidence 3) [D2D04917] (AR v1) Copy OK

Track 2

Filename F:\torrent\Black Book_Anne Dudley\score\02 Ich bin die fesche Lola (live).wav

Peak level 98.8 % Extraction speed 3.5 X Track quality 100.0 % Test CRC 1C0C16A7 Copy CRC 1C0C16A7 Accurately ripped (confidence 3) [A8FDF084] (AR v1) Copy OK

Track 3

Filename F:\torrent\Black Book_Anne Dudley\score\03 Ja, das ist meine Melodie.wav

Peak level 98.8 % Extraction speed 5.3 X Track quality 100.0 % Test CRC 7BE1889B Copy CRC 7BE1889B Accurately ripped (confidence 3) [4433091B] (AR v1) Copy OK

Track 4

Filename F:\torrent\Black Book_Anne Dudley\score\04 Ich tanze mit dir in der Himmel Hinein.wav

Pre-gap length 0:00:00.59

Peak level 91.6 % Extraction speed 5.8 X Track quality 100.0 % Test CRC 6BFF389E Copy CRC 6BFF389E Accurately ripped (confidence 3) [0BBC27AB] (AR v1) Copy OK

Track 5

Filename F:\torrent\Black Book_Anne Dudley\score\05 Rachel's theme.wav

Pre-gap length 0:00:01.62

Peak level 96.8 % Extraction speed 5.0 X Track quality 100.0 % Test CRC 667395D4 Copy CRC 667395D4 Accurately ripped (confidence 3) [21C32FC6] (AR v1) Copy OK

Track 6

Filename F:\torrent\Black Book_Anne Dudley\score\06 The black book.wav

Pre-gap length 0:00:00.30

Peak level 98.8 % Extraction speed 5.8 X Track quality 100.0 % Test CRC 17822C51 Copy CRC 17822C51 Accurately ripped (confidence 3) [985CE5B5] (AR v1) Copy OK

Track 7

Filename F:\torrent\Black Book_Anne Dudley\score\07 Escape through the marshes.wav

Peak level 71.9 % Extraction speed 6.2 X Track quality 100.0 % Test CRC EFD32DFF Copy CRC EFD32DFF Accurately ripped (confidence 3) [BE2BBD66] (AR v1) Copy OK

Track 8

Filename F:\torrent\Black Book_Anne Dudley\score\08 In pursuit.wav

Peak level 94.1 % Extraction speed 6.7 X Track quality 100.0 % Test CRC B5835352 Copy CRC B5835352 Accurately ripped (confidence 3) [512884F4] (AR v1) Copy OK

Track 9

Filename F:\torrent\Black Book_Anne Dudley\score\09 Rachel's plan.wav

Peak level 87.3 % Extraction speed 5.9 X Track quality 100.0 % Test CRC 9DF01829 Copy CRC 9DF01829 Accurately ripped (confidence 3) [B469B3AF] (AR v1) Copy OK

Track 10

Filename F:\torrent\Black Book_Anne Dudley\score\10 In too deep.wav

Peak level 91.8 % Extraction speed 6.3 X Track quality 100.0 % Test CRC 414DEFFC Copy CRC 414DEFFC Accurately ripped (confidence 3) [A37C00D6] (AR v1) Copy OK

Track 11

Filename F:\torrent\Black Book_Anne Dudley\score\11 Shot at dawn.wav

Peak level 98.8 % Extraction speed 6.5 X Track quality 100.0 % Test CRC EEF0D88A Copy CRC EEF0D88A Accurately ripped (confidence 3) [A27899FA] (AR v1) Copy OK

Track 12

Filename F:\torrent\Black Book_Anne Dudley\score\12 Sleeping with the enemy.wav

Peak level 69.2 % Extraction speed 7.4 X Track quality 100.0 % Test CRC D8339F4E Copy CRC D8339F4E Accurately ripped (confidence 3) [BDC8CF31] (AR v1) Copy OK

Track 13

Filename F:\torrent\Black Book_Anne Dudley\score\13 Escape plans.wav

Peak level 98.8 % Extraction speed 7.6 X Track quality 100.0 % Test CRC B2750CFB Copy CRC B2750CFB Accurately ripped (confidence 3) [F9567F16] (AR v1) Copy OK

Track 14

Filename F:\torrent\Black Book_Anne Dudley\score\14 The insider.wav

Peak level 83.9 % Extraction speed 7.1 X Track quality 100.0 % Test CRC 19B66008 Copy CRC 19B66008 Accurately ripped (confidence 3) [9484CBF6] (AR v1) Copy OK

Track 15

Filename F:\torrent\Black Book_Anne Dudley\score\15 Falling into the trap.wav

Pre-gap length 0:00:00.18

Peak level 98.8 % Extraction speed 7.1 X Track quality 100.0 % Test CRC 49D65B16 Copy CRC 49D65B16 Accurately ripped (confidence 3) [C5957AAE] (AR v1) Copy OK

Track 16

Filename F:\torrent\Black Book_Anne Dudley\score\16 Confessions of the night.wav

Pre-gap length 0:00:00.18

Peak level 85.3 % Extraction speed 8.1 X Track quality 100.0 % Test CRC C2CA42BF Copy CRC C2CA42BF Accurately ripped (confidence 3) [F12D15A4] (AR v1) Copy OK

Track 17

Filename F:\torrent\Black Book_Anne Dudley\score\17 Escape by sea.wav

Pre-gap length 0:00:00.08

Peak level 98.8 % Extraction speed 7.0 X Track quality 100.0 % Test CRC 8440B4C3 Copy CRC 8440B4C3 Accurately ripped (confidence 3) [611A1CE6] (AR v1) Copy OK

Track 18

Filename F:\torrent\Black Book_Anne Dudley\score\18 A hero of the Resistance.wav

Peak level 98.8 % Extraction speed 8.5 X Track quality 100.0 % Test CRC 0B149CB2 Copy CRC 0B149CB2 Accurately ripped (confidence 3) [51D2A348] (AR v1) Copy OK

Track 19

Filename F:\torrent\Black Book_Anne Dudley\score\19 Intelligence gathering.wav

Peak level 98.8 % Extraction speed 8.1 X Track quality 100.0 % Test CRC AF044CF8 Copy CRC AF044CF8 Accurately ripped (confidence 3) [727CC72E] (AR v1) Copy OK

Track 20

Filename F:\torrent\Black Book_Anne Dudley\score\20 Rumours of Liberation.wav

Peak level 98.8 % Extraction speed 6.8 X Track quality 99.9 % Test CRC BBC346D9 Copy CRC BBC346D9 Accurately ripped (confidence 3) [68E0B238] (AR v1) Copy OK

Track 21

Filename F:\torrent\Black Book_Anne Dudley\score\21 Victims of the Occupation.wav

Peak level 86.9 % Extraction speed 7.7 X Track quality 100.0 % Test CRC E85B472F Copy CRC E85B472F Accurately ripped (confidence 3) [015CBDCE] (AR v1) Copy OK

Track 22

Filename F:\torrent\Black Book_Anne Dudley\score\22 Rachel's retribution.wav

Peak level 98.8 % Extraction speed 8.7 X Track quality 99.9 % Test CRC 094AEC22 Copy CRC 094AEC22 Accurately ripped (confidence 3) [8034F426] (AR v1) Copy OK

Track 23

Filename F:\torrent\Black Book_Anne Dudley\score\23 The endless river.wav

Peak level 87.8 % Extraction speed 8.5 X Track quality 100.0 % Test CRC E39D9EA6 Copy CRC E39D9EA6 Accurately ripped (confidence 3) [7CD2BEB3] (AR v1) Copy OK

All tracks accurately ripped

No errors occurred

End of status report

==== Log checksum 6AA2C53B1D1943F81FF70C1D3FB400B798822385E8FA4FC5D81A0FDBA2015A8C ====
 
REM GENRE SoundtrackREM DATE 2006REM DISCID 7D0D1617REM COMMENT "ExactAudioCopy v1.0b3"CATALOG 3299039905128PERFORMER "Anne Dudley"TITLE "Black Book"FILE "01 A hundred years from today.wav" WAVE TRACK 01 AUDIO TITLE "A hundred years from today" PERFORMER "Anne Dudley" ISRC FRZ810609970 FLAGS DCP INDEX 01 00:00:00FILE "02 Ich bin die fesche Lola (live).wav" WAVE TRACK 02 AUDIO TITLE "Ich bin die fesche Lola (live)" PERFORMER "Anne Dudley" ISRC FRZ810609972 FLAGS DCP INDEX 01 00:00:00FILE "03 Ja, das ist meine Melodie.wav" WAVE TRACK 03 AUDIO TITLE "Ja, das ist meine Melodie" PERFORMER "Anne Dudley" ISRC FRZ810609971 FLAGS DCP INDEX 01 00:00:00 TRACK 04 AUDIO TITLE "Ich tanze mit dir in der Himmel Hinein" PERFORMER "Anne Dudley" ISRC FRZ810609973 FLAGS DCP INDEX 00 03:22:68FILE "04 Ich tanze mit dir in der Himmel Hinein.wav" WAVE INDEX 01 00:00:00 TRACK 05 AUDIO TITLE "Rachel's theme" PERFORMER "Anne Dudley" ISRC FRZ810608674 FLAGS DCP INDEX 00 03:30:20FILE "05 Rachel's theme.wav" WAVE INDEX 01 00:00:00 TRACK 06 AUDIO TITLE "The black book" PERFORMER "Anne Dudley" ISRC FRZ810608675 FLAGS DCP INDEX 00 01:28:08FILE "06 The black book.wav" WAVE INDEX 01 00:00:00FILE "07 Escape through the marshes.wav" WAVE TRACK 07 AUDIO TITLE "Escape through the marshes" PERFORMER "Anne Dudley" ISRC FRZ810608676 FLAGS DCP INDEX 01 00:00:00FILE "08 In pursuit.wav" WAVE TRACK 08 AUDIO TITLE "In pursuit" PERFORMER "Anne Dudley" ISRC FRZ810608677 FLAGS DCP INDEX 01 00:00:00FILE "09 Rachel's plan.wav" WAVE TRACK 09 AUDIO TITLE "Rachel's plan" PERFORMER "Anne Dudley" ISRC FRZ810608678 FLAGS DCP INDEX 01 00:00:00FILE "10 In too deep.wav" WAVE TRACK 10 AUDIO TITLE "In too deep" PERFORMER "Anne Dudley" ISRC FRZ810608679 FLAGS DCP INDEX 01 00:00:00FILE "11 Shot at dawn.wav" WAVE TRACK 11 AUDIO TITLE "Shot at dawn" PERFORMER "Anne Dudley" ISRC FRZ810608680 FLAGS DCP INDEX 01 00:00:00FILE "12 Sleeping with the enemy.wav" WAVE TRACK 12 AUDIO TITLE "Sleeping with the enemy" PERFORMER "Anne Dudley" ISRC FRZ810608681 FLAGS DCP INDEX 01 00:00:00FILE "13 Escape plans.wav" WAVE TRACK 13 AUDIO TITLE "Escape plans" PERFORMER "Anne Dudley" ISRC FRZ810608682 FLAGS DCP INDEX 01 00:00:00FILE "14 The insider.wav" WAVE TRACK 14 AUDIO TITLE "The insider" PERFORMER "Anne Dudley" ISRC FRZ810608683 FLAGS DCP INDEX 01 00:00:00 TRACK 15 AUDIO TITLE "Falling into the trap" PERFORMER "Anne Dudley" ISRC FRZ810608684 FLAGS DCP INDEX 00 01:57:43FILE "15 Falling into the trap.wav" WAVE INDEX 01 00:00:00 TRACK 16 AUDIO TITLE "Confessions of the night" PERFORMER "Anne Dudley" ISRC FRZ810608685 FLAGS DCP INDEX 00 01:45:55FILE "16 Confessions of the night.wav" WAVE INDEX 01 00:00:00 TRACK 17 AUDIO TITLE "Escape by sea" PERFORMER "Anne Dudley" ISRC FRZ810608686 FLAGS DCP INDEX 00 03:13:01FILE "17 Escape by sea.wav" WAVE INDEX 01 00:00:00FILE "18 A hero of the Resistance.wav" WAVE TRACK 18 AUDIO TITLE "A hero of the Resistance" PERFORMER "Anne Dudley" ISRC FRZ810608687 FLAGS DCP INDEX 01 00:00:00FILE "19 Intelligence gathering.wav" WAVE TRACK 19 AUDIO TITLE "Intelligence gathering" PERFORMER "Anne Dudley" ISRC FRZ810608688 FLAGS DCP INDEX 01 00:00:00FILE "20 Rumours of Liberation.wav" WAVE TRACK 20 AUDIO TITLE "Rumours of Liberation" PERFORMER "Anne Dudley" ISRC FRZ810608689 FLAGS DCP INDEX 01 00:00:00FILE "21 Victims of the Occupation.wav" WAVE TRACK 21 AUDIO TITLE "Victims of the Occupation" PERFORMER "Anne Dudley" ISRC FRZ810608690 FLAGS DCP INDEX 01 00:00:00FILE "22 Rachel's retribution.wav" WAVE TRACK 22 AUDIO TITLE "Rachel's retribution" PERFORMER "Anne Dudley" ISRC FRZ810608691 FLAGS DCP INDEX 01 00:00:00FILE "23 The endless river.wav" WAVE TRACK 23 AUDIO TITLE "The endless river" PERFORMER "Anne Dudley" ISRC FRZ810608692 FLAGS DCP INDEX 01 00:00:00


Трекер:  [ 17-Дек-2011 22:19 ]

  

Скачать .torrent

Размер .torrent файла 16 KB


Размер: 363 MB
Хэш (hash) релиза: e8dec499ca81a91e103eccf74737fdd044d4e6f9

bot

Топик был перенесен в форум Саундтреки к фильмам и мультфильмам (lossless)

Перенес Mos

Хотите добавить комментарий к записи скачать торрент Черная книга Black Book

!Обратная связь