Скачать через торрент музыку The Specials. Live at Japan бесплатно без регистрации torrent

Если у вас наблюдаются проблемы со скриншотами, переходом по ссылками, скачиванием торрентов - проблемы в блокировщике рекламы AdBlock. #хорошегоДня!


Статистика раздачи
Размер:  3.9 GB   |    Зарегистрирован:  5 лет 11 месяцев   |    .torrent скачан:  44 раза   |   
Раздают:  1  
   
Загрузка...
 
Автор Сообщение

_N_

avatar _N_


The Specials. Live at Japan

Страна: United Kindom
Жанр: Ska
Продолжительность: 01:11:29
Год выпуска: 1980
Треклист:
The Specials. Young Music Show (Japan TV, 1980)
1.) Rude Boys Outta Jail
2.) It's Up To You
3.) Hey Little Rich Girl
4.) Monkey Man
5.) Stupid Marriage
6.) Raquel
7.) Too Hot
8.) Rat Race
9.) Guns of Navarone
10.) A Message to You Rudy
11.) Do The Dog
12.) Too Much Too Young
13.) Gangsters
14.) Enjoy Yourself
15.) Skinhead Moonstomp

PLUS

The Specials (Saturday Night Live, 4/12/80)
16.) Gangsters
17.) Too Much Too Young
18.) 1998 MTV Interview / No Doubt. Ghost Town (13/5/97)
19.) Mighty Mighty Bosstones. Kinder Words (John Stewart Show, 11/94)
20.) General Public. Handgun (Conan O'Brien Show, 6/95)
21.) Bim Skala Bim. Eyes And Ears (Boston, 6/95)
22.) The Toasters. I Wasn't Gonna Call You Anyways (MTV, 10/97)
23.) Madness. Night Boat To Cairo (Conan O'Brien Show, 11/5/99)

Разбивка на главы по трекам: есть
Качество : VHSRip + TVRip
Формат: DVD video
Видео кодек: MPEG2
Аудио кодек: PCM
Видео: NTSC 4:3 (720x480) VBR
Аудио: LPCM, 2 ch, Delay = 0 mSec
 
Size: 3.90 Gb ( 4 093 976 KBytes ) - DVD-5VideoID : 224 (0xE0)Format : MPEG VideoFormat version : Version 2Format profile : Main@MainFormat settings, BVOP : YesFormat settings, Matrix : DefaultFormat_Settings_GOP : M=3, N=15Duration : 18mn 43sBit rate mode : VariableBit rate : 5 803 KbpsNominal bit rate : 8 000 KbpsWidth : 720 pixelsHeight : 480 pixelsDisplay aspect ratio : 4:3Frame rate : 29.970 fpsStandard : NTSCResolution : 8 bitsColorimetry : 4:2:0Scan type : InterlacedScan order : Bottom Field FirstBits/(Pixel*Frame) : 0.560Stream size : 777 MiB (76%)

AudioID : 160 (0xA0)Format : PCMFormat settings, Endianness : BigFormat settings, Sign : SignedMuxing mode : DVD-VideoDuration : 18mn 43sBit rate mode : ConstantBit rate : 1 536 KbpsChannel(s) : 2 channelsChannel positions : Front: L RSampling rate : 48.0 KHzResolution : 16 bitsVideo delay : -512msStream size : 206 MiB (20%)


Трекер:  [ 16-Дек-2011 15:27 ]

  

Скачать .torrent

Размер .torrent файла 40 KB


Размер: 3.9 GB
Хэш (hash) релиза: f8cd97cfb9814f5df6e4ad812a9f493cd65a5703

bot

Топик был перенесен в форум Reggae, Ska, Dub (video)

Перенес Ronaldo C

Хотите добавить комментарий к записи скачать торрент The Specials. Live at Japan

!Обратная связь