Скачать через торрент музыку Max Romeo - live on Rototom бесплатно без регистрации torrent

Если у вас наблюдаются проблемы со скриншотами, переходом по ссылками, скачиванием торрентов - проблемы в блокировщике рекламы AdBlock. #хорошегоДня!


Статистика раздачи
Размер:  4.64 GB   |    Зарегистрирован:  5 лет 9 месяцев   |    .torrent скачан:  40 раз   |   
Раздают:  1  
   
Загрузка...
 
Автор Сообщение

_N_

avatar _N_


Max Romeo - live on Rototom

Страна: Spain
Жанр: Reggae / Roots reggae
Продолжительность: 01:11:02
Год выпуска: 2010

Max Romeo (Maxwell Livingston Smith, родился 22 ноября 1947 года в St. D'Acre, St. James, Jamaica) - легендарный ямайский reggae and roots reggae исполнитель, который неоднократно покорял вершины чартов на Ямайке и в Великобритании.

Качество: IPTVRip
Контейнер: MPG
Видео кодек: MPEG2
Аудио кодек: MP2
Видео: MPEG 2, 720x576, 4:3, 8782 kbps, 25 fps
Аудио: MPEG 1 layer 2, 384 Kbps, 48.0 kHz, 2 ch
 
Complete name : Max Romeo - Rototom 2010.mpgFormat : MPEG-PSFile size : 4.64 GiBDuration : 1h 11mnOverall bit rate : 9 352 KbpsWriting library : encoded by TMPGEnc (ver. 2.524.63.181)

VideoID : 224 (0xE0)Format : MPEG VideoFormat version : Version 2Format profile : Main@MainFormat settings, BVOP : YesFormat settings, Matrix : DefaultFormat settings, GOP : M=3, N=18Duration : 1h 11mnBit rate mode : VariableBit rate : 8 782 KbpsNominal bit rate : 9 500 KbpsWidth : 720 pixelsHeight : 576 pixelsDisplay aspect ratio : 4:3Frame rate : 25.000 fpsStandard : PALColor space : YUVChroma subsampling : 4:2:0Bit depth : 8 bitsScan type : ProgressiveCompression mode : LossyBits/(Pixel*Frame) : 0.847Stream size : 4.36 GiB (94%)Writing library : TMPGEnc 2.524.63.181

AudioID : 192 (0xC0)Format : MPEG AudioFormat version : Version 1Format profile : Layer 2Duration : 1h 11mnBit rate mode : ConstantBit rate : 384 KbpsChannel(s) : 2 channelsSampling rate : 48.0 KHzCompression mode : LossyStream size : 195 MiB (4%)


Трекер:  [ 02-Янв-2012 21:43 ]

  

Скачать .torrent

Размер .torrent файла 23 KB


Размер: 4.64 GB
Хэш (hash) релиза: c8c4b83547de1aa58490dafbddb37179d43556c6

bot

Топик был перенесен в форум Reggae, Ska, Dub (video)

Перенес Ronaldo C

Хотите добавить комментарий к записи скачать торрент Max Romeo - live on Rototom

!Обратная связь