Скачать через торрент музыку Anthony B - live on Rototom бесплатно без регистрации torrent

Если у вас наблюдаются проблемы со скриншотами, переходом по ссылками, скачиванием торрентов - проблемы в блокировщике рекламы AdBlock. #хорошегоДня!


Статистика раздачи
Размер:  6.11 GB   |    Зарегистрирован:  5 лет 9 месяцев   |    .torrent скачан:  29 раз   |   
Раздают:  1  
   
Загрузка...
 
Автор Сообщение

_N_

avatar _N_


Anthony B - live on Rototom

Страна: Spain
Жанр: Reggae / Dancehall / Ragga
Продолжительность: 01:35:45
Год выпуска: 2010

Качество: IPTVRip
Контейнер: MPG
Видео кодек: MPEG2
Аудио кодек: MP2
Видео: MPEG 2, 720x576, 4:3, 8572 kbps, 25 fps
Аудио: MPEG 1 layer 2, 384 Kbps, 48.0 kHz, 2 ch
Complete name : Anthony B - Rototom 2010.mpg
Format : MPEG-PS
File size : 6.11 GiB
Duration : 1h 35mn
Overall bit rate : 9 137 Kbps
Writing library : encoded by TMPGEnc (ver. 2.524.63.181)

Video
ID : 224 (0xE0)
Format : MPEG Video
Format version : Version 2
Format profile : Main@Main
Format settings, BVOP : Yes
Format settings, Matrix : Default
Format settings, GOP : M=3, N=18
Duration : 1h 35mn
Bit rate mode : Variable
Bit rate : 8 572 Kbps
Nominal bit rate : 9 500 Kbps
Width : 720 pixels
Height : 576 pixels
Display aspect ratio : 4:3
Frame rate : 25.000 fps
Standard : PAL
Color space : YUV
Chroma subsampling : 4:2:0
Bit depth : 8 bits
Scan type : Progressive
Compression mode : Lossy
Bits/(Pixel*Frame) : 0.827
Stream size : 5.73 GiB (94%)
Writing library : TMPGEnc 2.524.63.181

Audio
ID : 192 (0xC0)
Format : MPEG Audio
Format version : Version 1
Format profile : Layer 2
Duration : 1h 35mn
Bit rate mode : Constant
Bit rate : 384 Kbps
Channel(s) : 2 channels
Sampling rate : 48.0 KHz
Compression mode : Lossy
Stream size : 263 MiB (4%)


Трекер:  [ 02-Янв-2012 21:38 ]

  

Скачать .torrent

Размер .torrent файла 31 KB


Размер: 6.11 GB
Хэш (hash) релиза: 15b859408834a7af6880132513e42855eb1dab69

bot

Топик был перенесен в форум Reggae, Ska, Dub (video)

Перенес Ronaldo C

Хотите добавить комментарий к записи скачать торрент Anthony B - live on Rototom

!Обратная связь