Скачать через торрент музыку Youssou NDour - live on Montreux Jazz Festival бесплатно без регистрации torrent

Если у вас наблюдаются проблемы со скриншотами, переходом по ссылками, скачиванием торрентов - проблемы в блокировщике рекламы AdBlock. #хорошегоДня!


Статистика раздачи
Размер:  3.31 GB   |    Зарегистрирован:  5 лет 7 месяцев   |    .torrent скачан:  32 раза   |   
Раздают:  1  
   
Загрузка...
 
Автор Сообщение

_N_

avatar _N_


Youssou N'Dour - live on Montreux Jazz Festival

Страна: Switzerland
Жанр: Reggae / Mbalax
Продолжительность: 0:50:10
Год выпуска: 2010

Youssou N'Dour (Юссу Н’Дур [jusun ̩ˈ du ːʀ]) - певец, перкуссионист, композитор и актер из Сенегала (родился в 1959 году). Один из самых известных певцов африканского континента, к которому пришла мировая слава после написания и исполнения композиции 7 Seconds в дуэте с Neneh Cherry (Нене Черри) в 1994. В 2004 году Rolling Stone назвал его «самым известным в Сенегале и на большей части Африки живым исполнителем».
Youssou принимал активное участие в создании и развитии стиля популярной музыки, известного как Mbalax. Снялся в нескольких художественных и документальных фильмах. Написал музыку к нескольким фильмам.
Mbalax (или Mbalakh) – национальная популярная танцевальная музыка в Сенегале и Гамбии. Этот стиль основан на слиянии западной популярной музыки (джаз, соул, латина, рок) с музыкой sabar - традиционной барабанной и танцевальной музыкой Сенегала. Слово mbalax произошло от названия часто используемого сопровождающего ритма, используемого в sabar.
01 - Diarr Diarr 04:57
02 - Pitche Me 06:59
03 - Medina 04:28
04 - 7 Seconds 07:18
05 - Redemption Song 08:27
06 - Birima 09:50
07 - Set 08:09
Качество: TVRip
Контейнер: VOB
Видео кодек: MPEG2
Аудио кодек: AC3
Видео: MPEG2, 720:576, 4:3, var 9282 kbps, 25 fps
Аудио: AC-3, 384 kbps, 48 kHz, 2 ch
 
VIDEO_TS.VOBComplete name : Youssou N'Dour - Montreux - 09 july 2010\VIDEO_TS\VIDEO_TS.VOBFormat : MPEG-PSFile size : 60.0 KiBDuration : 40msOverall bit rate : 12.3 Mbps

VideoID : 224 (0xE0)Format : MPEG VideoFormat version : Version 2Format profile : Main@MainFormat settings, BVOP : NoFormat settings, Matrix : DefaultDuration : 40msBit rate mode : VariableBit rate : 8 648 KbpsWidth : 720 pixelsHeight : 576 pixelsDisplay aspect ratio : 4:3Frame rate : 25.000 fpsStandard : PALColor space : YUVChroma subsampling : 4:2:0Bit depth : 8 bitsScan type : InterlacedScan order : Top Field FirstCompression mode : LossyBits/(Pixel*Frame) : 0.834Stream size : 42.2 KiB (70%)

TextID : 32 (0x20)Format : RLEFormat/Info : Run-length encoding

VTS_01_1.VOBComplete name : Youssou N'Dour - Montreux - 09 july 2010\VIDEO_TS\VTS_01_1.VOBFormat : MPEG-PSFile size : 1 023 MiBDuration : 15mn 7sOverall bit rate : 9 462 Kbps

VideoID : 224 (0xE0)Format : MPEG VideoFormat version : Version 2Format profile : Main@MainFormat settings, BVOP : YesFormat settings, Matrix : DefaultFormat settings, GOP : M=3, N=12Duration : 15mn 7sBit rate mode : VariableBit rate : 9 282 KbpsWidth : 720 pixelsHeight : 576 pixelsDisplay aspect ratio : 4:3Frame rate : 25.000 fpsStandard : PALColor space : YUVChroma subsampling : 4:2:0Bit depth : 8 bitsScan type : InterlacedScan order : Top Field FirstCompression mode : LossyBits/(Pixel*Frame) : 0.895Stream size : 962 MiB (94%)

AudioID : 128 (0x80)Format : AC-3Format/Info : Audio Coding 3Mode extension : CM (complete main)Duration : 15mn 7sBit rate mode : ConstantBit rate : 384 KbpsChannel(s) : 2 channelsChannel positions : Front: L RSampling rate : 48.0 KHzBit depth : 16 bitsCompression mode : LossyDelay relative to video : -272msStream size : 41.5 MiB (4%)

VTS_01_4.VOBComplete name : Youssou N'Dour - Montreux - 09 july 2010\VIDEO_TS\VTS_01_4.VOBFormat : MPEG-PSFile size : 319 MiBDuration : 4mn 43sOverall bit rate : 9 450 Kbps

VideoID : 224 (0xE0)Format : MPEG VideoFormat version : Version 2Format profile : Main@MainFormat settings, BVOP : YesFormat settings, Matrix : DefaultFormat settings, GOP : M=3, N=12Duration : 4mn 43sBit rate mode : VariableBit rate : 9 282 KbpsWidth : 720 pixelsHeight : 576 pixelsDisplay aspect ratio : 4:3Frame rate : 25.000 fpsStandard : PALColor space : YUVChroma subsampling : 4:2:0Bit depth : 8 bitsScan type : InterlacedScan order : Top Field FirstCompression mode : LossyBits/(Pixel*Frame) : 0.895Stream size : 300 MiB (94%)

AudioID : 128 (0x80)Format : AC-3Format/Info : Audio Coding 3Mode extension : CM (complete main)Duration : 4mn 43sBit rate mode : ConstantBit rate : 384 KbpsChannel(s) : 2 channelsChannel positions : Front: L RSampling rate : 48.0 KHzBit depth : 16 bitsCompression mode : LossyDelay relative to video : -168msStream size : 13.0 MiB (4%)


Трекер:  [ 02-Янв-2012 21:44 ]

  

Скачать .torrent

Размер .torrent файла 17 KB


Размер: 3.31 GB
Хэш (hash) релиза: d3cdd8d2bd1fe2415ea88d72ce465f0082496532

bot

Топик был перенесен в форум Reggae, Ska, Dub (video)

Перенес Ronaldo C

Хотите добавить комментарий к записи скачать торрент Youssou NDour - live on Montreux Jazz Festival

!Обратная связь