Скачать через торрент музыку Best Music Collection. Reggae бесплатно без регистрации torrent

Если у вас наблюдаются проблемы со скриншотами, переходом по ссылками, скачиванием торрентов - проблемы в блокировщике рекламы AdBlock. #хорошегоДня!


Статистика раздачи
Размер:  2.24 GB   |    Зарегистрирован:  5 лет 7 месяцев   |    .torrent скачан:  36 раз   |   
Раздают:  1  
   
Загрузка...
 
Автор Сообщение

_N_

avatar _N_


Best Music Collection. Reggae

Страна: USA
Жанр: Reggae
Продолжительность: 00:48:38
Год выпуска: 2009 г.
Описание: Ретро сборник из 12 клипов разных исполнителей.

Треклист:
01 Ziggy Marley & Melody Makers - Good Times
02 Eek-a-Mouse - Safari
03 Barrington Levy - Don't Throw It All Away
04 The Wailers - My Friend
05 Mickey Dread - Choose Me
06 Jambo - Shine On Brighter
07 Rita Marley - Who Colt The Game
08 Lucky Dube - Prisoner
09 Michael e Johnson - Mad Minute
10 Jambo - No Man Kill Another
11 Jambo - Hero
12 Bob Marley - Stand Up

Качество: DVD
Контейнер: VOB
Видео кодек: MPEG2
Аудио кодек: AC3
Видео: MPEG2, 720x480, 4:3, 6000 Kbps, 29.970 fps
Аудио: AC-3, 448 Kbps, 48.0 KHz, 2 ch
 
VTS_01_0.VOBComplete name : Best Music Collection. Reggae. 2009\VIDEO_TS\VTS_01_0.VOBFormat : MPEG-PSFile size : 460 KiBDuration : 33msOverall bit rate : 114 Mbps

VideoID : 224 (0xE0)Format : MPEG VideoFormat version : Version 2Format profile : Main@MainFormat settings, BVOP : NoFormat settings, Matrix : DefaultFormat settings, GOP : N=1Duration : 33msBit rate mode : VariableBit rate : 8 000 KbpsWidth : 720 pixelsHeight : 480 pixelsDisplay aspect ratio : 4:3Frame rate : 29.970 fpsStandard : NTSCColor space : YUVChroma subsampling : 4:2:0Bit depth : 8 bitsScan type : ProgressiveScan order : Top Field FirstCompression mode : LossyBits/(Pixel*Frame) : 0.772Stream size : 32.2 KiB (7%)

TextID : 189 (0xBD)-32 (0x20)Format : RLEFormat/Info : Run-length encodingMuxing mode : DVD-Video

VTS_01_1.VOBComplete name : Best Music Collection. Reggae. 2009\VIDEO_TS\VTS_01_1.VOBFormat : MPEG-PSFile size : 1 024 MiBDuration : 21mn 46sOverall bit rate : 6 577 Kbps

VideoID : 224 (0xE0)Format : MPEG VideoFormat version : Version 2Format profile : Main@MainFormat settings, BVOP : YesFormat settings, Matrix : DefaultDuration : 21mn 46sBit rate mode : VariableBit rate : 5 998 KbpsWidth : 720 pixelsHeight : 480 pixelsDisplay aspect ratio : 4:3Frame rate : 29.970 fpsStandard : NTSCColor space : YUVChroma subsampling : 4:2:0Bit depth : 8 bitsScan type : InterlacedScan order : Top Field FirstCompression mode : LossyBits/(Pixel*Frame) : 0.579Stream size : 934 MiB (91%)

AudioID : 189 (0xBD)-128 (0x80)Format : AC-3Format/Info : Audio Coding 3Mode extension : CM (complete main)Muxing mode : DVD-VideoDuration : 21mn 45sBit rate mode : ConstantBit rate : 448 KbpsChannel(s) : 2 channelsChannel positions : Front: L RSampling rate : 48.0 KHzBit depth : 16 bitsCompression mode : LossyDelay relative to video : -66msStream size : 69.7 MiB (7%)


Трекер:  [ 02-Янв-2012 21:40 ]

  

Скачать .torrent

Размер .torrent файла 12 KB


Размер: 2.24 GB
Хэш (hash) релиза: 874159eb1b4fdef1c764839d11fff55f047aad6f

bot

Топик был перенесен в форум Reggae, Ska, Dub (video)

Перенес Ronaldo C

Хотите добавить комментарий к записи скачать торрент Best Music Collection. Reggae

!Обратная связь