Скачать через торрент музыку Reggae At The BBC бесплатно без регистрации torrent

Если у вас наблюдаются проблемы со скриншотами, переходом по ссылками, скачиванием торрентов - проблемы в блокировщике рекламы AdBlock. #хорошегоДня!


Статистика раздачи
Размер:  3.13 GB   |    Зарегистрирован:  5 лет 8 месяцев   |    .torrent скачан:  35 раз   |   
Раздают:  1  
   
Загрузка...
 
Автор Сообщение

_N_

avatar _N_


Reggae At The BBC

Страна: England
Жанр: Reggae
Продолжительность: 01:29:24
Год выпуска: 2011 г.

Раритетные записи из архивов BBC, "выданные" в эфир в виде полуторачасового концерта 18 февраля 2011 года.

Качество: TVRip
Контейнер: VOB
Видео кодек: MPEG2
Аудио кодек: AC3
Видео: MPEG 2, 720x576, 16:9, 4593 kbps, 25 fps
Аудио: AC-3, 256 kbps, 48.0 kHz, 2 ch
1. Intro
2. Nicky Thomas - Love Of The Common People (1973)
3. The Wailers - Stir It Up (1973)
4. Susan Cadogan - Hurts So Good (1975)
5. Bob Marley and the Wailers - Exodus (1977)
6. Althea and Donna - Uptown Top Ranking (1978)
7. Desmond Dekker - Israelites (1978)
8. Steel Pulse - Ku Klux Klan (1978)
9. Dennis Brown - Money In My Pocket (1979)
10. Janet Kay - Silly Games (1979)
11. Madness - The Prince (1979)
12. The Specials - A Message To You Rudy (1979)
13. Junior Murvin - Police and Thieves (1980)
14. Black Slate - Amigo (1980)
15. UB40 - Food For Thought (1981)
16. Sugar Minott - Good Thing Going (1981)
17. Aswad - African Children (1982)
18. Musical Youth - Pass The Dutchie (1982)
19. Gregory Isaacs and Roots Radics Band - Night Nurse (1982)
20. Maxi Priest - Wild World (1988)
21. Shabba Ranks - Twice My Age (1993)
22. Shaggy - Oh Carolina (1993)
23, Chaka Demus and Pliers (feat Jack Radics with Sly and Robbie) - Twist and Shout (1993)
24. Buju Banton - Murderer (1995)
25. Burning Spear - Slavery Days (1996)
26. Beenie Man - Who Am I (2002)
27. Sean Paul - We Be Burnin' (2005)
28. Jimmy Cliff - Many Rivers To Cross (2008)
 
VIDEO_TS.VOBComplete name : Reggae At The BBC\VIDEO_TS\VIDEO_TS.VOBFormat : MPEG-PSFile size : 54.0 KiBDuration : 40msOverall bit rate : 11.1 Mbps

VideoID : 224 (0xE0)Format : MPEG VideoFormat version : Version 2Format profile : Main@MainFormat settings, BVOP : NoFormat settings, Matrix : DefaultDuration : 40msBit rate mode : VariableBit rate : 8 872 KbpsWidth : 720 pixelsHeight : 576 pixelsDisplay aspect ratio : 4:3Frame rate : 25.000 fpsStandard : PALColor space : YUVChroma subsampling : 4:2:0Bit depth : 8 bitsScan type : ProgressiveScan order : Top Field FirstCompression mode : LossyBits/(Pixel*Frame) : 0.856Stream size : 43.3 KiB (80%)

TextID : 189 (0xBD)-32 (0x20)Format : RLEFormat/Info : Run-length encodingMuxing mode : DVD-Video

VTS_01_1.VOBComplete name : Reggae At The BBC\VIDEO_TS\VTS_01_1.VOBFormat : MPEG-PSFile size : 1 016 MiBDuration : 28mn 42sOverall bit rate : 4 947 Kbps

VideoID : 224 (0xE0)Format : MPEG VideoFormat version : Version 2Format profile : Main@MainFormat settings, BVOP : YesFormat settings, Matrix : DefaultFormat settings, GOP : M=3, N=12Duration : 28mn 42sBit rate mode : VariableBit rate : 4 593 KbpsNominal bit rate : 9 496 KbpsWidth : 720 pixelsHeight : 576 pixelsDisplay aspect ratio : 16:9Frame rate : 25.000 fpsStandard : PALColor space : YUVChroma subsampling : 4:2:0Bit depth : 8 bitsScan type : InterlacedScan order : Top Field FirstCompression mode : LossyBits/(Pixel*Frame) : 0.443Stream size : 943 MiB (93%)

AudioID : 189 (0xBD)-128 (0x80)Format : AC-3Format/Info : Audio Coding 3Mode extension : CM (complete main)Muxing mode : DVD-VideoDuration : 28mn 42sBit rate mode : ConstantBit rate : 256 KbpsChannel(s) : 2 channelsChannel positions : Front: L RSampling rate : 48.0 KHzBit depth : 16 bitsCompression mode : LossyDelay relative to video : -240msStream size : 52.6 MiB (5%)


Трекер:  [ 16-Дек-2011 21:45 ]

  

Скачать .torrent

Размер .torrent файла 16 KB


Размер: 3.13 GB
Хэш (hash) релиза: ce4b6feac6c58825ae86daa64e5ac78d4746ae84

bot

Топик был перенесен в форум Reggae, Ska, Dub (video)

Перенес Ronaldo C

Хотите добавить комментарий к записи скачать торрент Reggae At The BBC

!Обратная связь