Скачать через торрент музыку Reggae Britannia - Live at The Barbican London UK бесплатно без регистрации torrent

Если у вас наблюдаются проблемы со скриншотами, переходом по ссылками, скачиванием торрентов - проблемы в блокировщике рекламы AdBlock. #хорошегоДня!


Статистика раздачи
Размер:  3.13 GB   |    Зарегистрирован:  5 лет 7 месяцев   |    .torrent скачан:  35 раз   |   
Раздают:  1  
   
Загрузка...
 
Автор Сообщение

_N_

avatar _N_


Reggae Britannia - Live at The Barbican London UK

Страна: England
Жанр: Reggae
Продолжительность: 01:29:02
Год выпуска: 2011 г.

5 февраля 2011 года в концертном зале The Barbican, London UK состоялся праздничный концерт, организованный для того, чтобы отметить влияние регги на музыку и культуру Англии, а также в связи с началом сезона Reggae Britannia на канале BBC4. Организатор, музыкальный директор и ведущий этого мероприятия - Dennis Bovell. Выступления знаменитостей от 60-х до наших дней наглядно рассказывают об истории музыкальной эволюции от SKA, через Rocksteady, Roots, Dub, Lovers Rock и проникновение Reggae музыки за ее пределы.
Шоу продолжалось несколько часов. В результате монтажа получился полуторачасовой концерт, который был показан в эфире 11.02.2011

Треклист:
1. Dave Barker - Double Barrel
2. Dennis Alcapone and Winston Reedy - Guns Don't Argue
3. Ken Boothe - Freedom Street
4. Ken Boothe - Everything I Own
5. Janet Kay - Loving You
6. Janet Kay - Silly Games
7. Big Youth - I Pray Thee
8. Big Youth - Hit The Road, Jack
9. Neville Staple - Monkey Man
10. Neville Staple - Ghost Town
11. Pauline Black - Three Minute Hero
12. Pauline Black - On My Radio
13. Dennis Bovell - After Tonight
14. Rico Rodriguez - Man From Wareika
15. Brinsley Forde - African Children
16. Brinsley Forde & Soloman - Shine
17. Carroll Thompson - Hopelessly In Love
18. Ali Campbell - Kingston Town
19. Ali Campbell - Red Red Wine
20. One love

Качество: TVRip
Контейнер: VOB
Видео кодек: MPEG2
Видео: MPEG 2, 720x576, 16:9, 4700 kbps, 25 fps
Аудио: AC-3, 256 kbps, 48.0 kHz, 2 ch
 
VIDEO_TS.VOBComplete name : Reggae Britannia - Live at The Barbican London UK - 5th Feb 2011\VIDEO_TS\VIDEO_TS.VOBFormat : MPEG-PSFile size : 60.0 KiBDuration : 40msOverall bit rate : 12.3 Mbps

VideoID : 224 (0xE0)Format : MPEG VideoFormat version : Version 2Format profile : Main@MainFormat settings, BVOP : NoFormat settings, Matrix : DefaultDuration : 40msBit rate mode : VariableBit rate : 8 872 KbpsWidth : 720 pixelsHeight : 576 pixelsDisplay aspect ratio : 4:3Frame rate : 25.000 fpsStandard : PALColor space : YUVChroma subsampling : 4:2:0Bit depth : 8 bitsScan type : ProgressiveScan order : Top Field FirstCompression mode : LossyBits/(Pixel*Frame) : 0.856Stream size : 43.3 KiB (72%)

TextID : 189 (0xBD)-32 (0x20)Format : RLEFormat/Info : Run-length encodingMuxing mode : DVD-Video

VTS_01_1.VOBComplete name : Reggae Britannia - Live at The Barbican London UK - 5th Feb 2011\VIDEO_TS\VTS_01_1.VOBFormat : MPEG-PSFile size : 1 016 MiBDuration : 28mn 5sOverall bit rate : 5 057 Kbps

VideoID : 224 (0xE0)Format : MPEG VideoFormat version : Version 2Format profile : Main@MainFormat settings, BVOP : YesFormat settings, Matrix : DefaultFormat settings, GOP : M=3, N=12Duration : 28mn 5sBit rate mode : VariableBit rate : 4 700 KbpsNominal bit rate : 9 496 KbpsWidth : 720 pixelsHeight : 576 pixelsDisplay aspect ratio : 16:9Frame rate : 25.000 fpsStandard : PALColor space : YUVChroma subsampling : 4:2:0Bit depth : 8 bitsScan type : InterlacedScan order : Top Field FirstCompression mode : LossyBits/(Pixel*Frame) : 0.453Stream size : 944 MiB (93%)

AudioID : 189 (0xBD)-128 (0x80)Format : AC-3Format/Info : Audio Coding 3Mode extension : CM (complete main)Muxing mode : DVD-VideoDuration : 28mn 5sBit rate mode : ConstantBit rate : 256 KbpsChannel(s) : 2 channelsChannel positions : Front: L RSampling rate : 48.0 KHzBit depth : 16 bitsCompression mode : LossyDelay relative to video : -240msStream size : 51.4 MiB (5%)


Трекер:  [ 02-Янв-2012 21:45 ]

  

Скачать .torrent

Размер .torrent файла 16 KB


Размер: 3.13 GB
Хэш (hash) релиза: b2ea92023978f6c7b921e5d8ac29de495e078b12

bot

Топик был перенесен в форум Reggae, Ska, Dub (video)

Перенес Ronaldo C

Хотите добавить комментарий к записи скачать торрент Reggae Britannia - Live at The Barbican London UK

!Обратная связь