Скачать через торрент музыку Jah Shaka - The Dubschool Special Japan Tour бесплатно без регистрации torrent

Если у вас наблюдаются проблемы со скриншотами, переходом по ссылками, скачиванием торрентов - проблемы в блокировщике рекламы AdBlock. #хорошегоДня!


Статистика раздачи
Размер:  1.67 GB   |    Зарегистрирован:  5 лет 6 месяцев   |    .torrent скачан:  38 раз   |   
Раздают:  1  
   
Загрузка...
 
Автор Сообщение

Galfimbul

avatar Galfimbul


Jah Shaka - The Dubschool Special Japan Tour

Страна: Japan
Жанр: Dub / Reggae
Продолжительность: 00:49:05
Год выпуска: 2003 г.

Jah Shaka - легенда британского sound system-движения. Он активно занимается "roots reggae Jamaican sound system" с начала 1970-х, базируясь в Юго-Восточном Лондоне.
Его имя - сочетание растафарианского имени Бога (Jah) и имени легендарного воина, основателя и первого правителя державы зулу - Shaka Zulu.

http://en.wikipedia.org/wiki/Jah_Shaka
http://www.roots-archives.com/artist/615
http://en.wikipedia.org/wiki/Shaka_Zulu
http://ru.wikipedia.org/wiki/%D0%A7%D0%B0%D0%BA%D0%B0

В этом видео - выступление Jah Shaka в Японии в 2003 году, которое названо
"The Dubschool Special Jah Shaka Japan Tour 2003 in Nagoya".
Любительское видео. Снято в клубе несколькими камерами с разных точек. Смонтировано.
Неизвестному автору РЕСПЕКТ!))

Разбивка на главы по трекам: нет
Качество: amateur video
Контейнер: VOB
Видео кодек: MPEG2
Аудио кодек: AC3
Видео: MPEG2 Video, 720:480, 4:3, VBR: 4582 kbps, nominal 6500 kbps, 29.970 fps
Аудио: AC-3, 192 kbps, 48.0 kHz, 2 ch
 
Complete name : Jah Shaka - The Dubschool Special - Japan Tour 2003 in Nagoya\VIDEO_TS\VTS_01_1.VOBFormat : MPEG-PSFile size : 1 024 MiBDuration : 29mn 23sOverall bit rate : 4 871 Kbps

VideoID : 224 (0xE0)Format : MPEG VideoFormat version : Version 2Format profile : Main@MainFormat settings, BVOP : YesFormat settings, Matrix : DefaultFormat settings, GOP : M=3, N=15Duration : 29mn 23sBit rate mode : VariableBit rate : 4 582 KbpsNominal bit rate : 6 500 KbpsWidth : 720 pixelsHeight : 480 pixelsDisplay aspect ratio : 4:3Frame rate : 29.970 fpsStandard : NTSCColor space : YUVChroma subsampling : 4:2:0Bit depth : 8 bitsScan type : InterlacedScan order : Top Field FirstBits/(Pixel*Frame) : 0.442Stream size : 963 MiB (94%)

AudioID : 128 (0x80)Format : AC-3Format/Info : Audio Coding 3Mode extension : CM (complete main)Duration : 29mn 23sBit rate mode : ConstantBit rate : 192 KbpsChannel(s) : 2 channelsChannel positions : Front: L RSampling rate : 48.0 KHzBit depth : 16 bitsVideo delay : -210msStream size : 40.4 MiB (4%)


Трекер:  [ 03-Фев-2012 01:14 ]

  

Скачать .torrent

Размер .torrent файла 17 KB


Размер: 1.67 GB
Хэш (hash) релиза: e05d9fe4b6cc0e948387feebd4dabbbc7ac273a6

Еще никто не оставлял запись к записи скачать торрент Jah Shaka - The Dubschool Special Japan Tour . Будь первым!

!Обратная связь