Скачать через торрент музыку VA - Beginners Guide To Ska бесплатно без регистрации torrent

Если у вас наблюдаются проблемы со скриншотами, переходом по ссылками, скачиванием торрентов - проблемы в блокировщике рекламы AdBlock. #хорошегоДня!


Статистика раздачи
Размер:  673 MB   |    Зарегистрирован:  5 лет 10 месяцев   |    .torrent скачан:  29 раз   |   
Раздают:  1  
   
Загрузка...
 
Автор Сообщение

_N_

avatar _N_


Beginner's guide to Ska (2009).

Жанр: Ska
Страна-производитель диска: UK
Год издания диска: 2009
Издатель (лейбл): Nascente
Номер по каталогу: NSBOX055
Аудио кодек: FLAC (*.flac)
Тип рипа: image+.cue
Битрейт аудио: lossless
Продолжительность: 2 ч 24 мин
Источник (релизер): Из личных
Наличие сканов в содержимом раздачи: да
Треклист
The Skatalites Guns Of Navarone
Alton Ellis Ska Beat
Baba Brooks & The Skatalites Shank I Sheck
Eric `Monty' Morris Penny Reel
Don Drummond Dan De Lion (AKA Don De Lion)
Sir Lord Comic & The Skatalites Four Seasons
Justin Hinds & The Dominoes Mother Banner
Lester Sterling Skaramont
The Upsetters So Bad
Roy Richards Contact
Shenley Duffus Rukumbine
Don Drummond & Drumbago Treasure Island
Alton Ellis Mouth A Massy
Baba Brooks Vitamin A
Justin Hinds & The Dominoes Rub Up, Push Up
The Skatalites Malcolm X
The Zodiacs Renegade
Don Drummond Alley Pon (AKA Alley Pang)
The Maytals John & James
The Skatalites Tribute To Nehru
Exact Audio Copy V0.99 prebeta 4 from 23. January 2008

Отчёт EAC об извлечении, выполненном 16. мая 2011, 18:01

Various / Beginner's Guide To Ska - CD1: The Sound Of Young Jamaica

Дисковод: HL-DT-STDVDRAM GE20NU10 Adapter: 5 ID: 0

Режим чтения : Достоверность
Использование точного потока : Да
Отключение кэша аудио : Да
Использование указателей C2 : Нет

Коррекция смещения при чтении : 667
Способность читать области Lead-in и Lead-out : Нет
Заполнение пропущенных сэмплов тишиной : Да
Удаление блоков с тишиной в начале и конце : Нет
При вычислениях CRC использовались нулевые сэмплы : Да
Интерфейс : Встроенный Win32-интерфейс для Win NT/2000

Выходной формат : Пользовательский кодировщик
Выбранный битрейт : 384 kBit/s
Качество : Высокий
Добавление ID3-тэга : Нет
Утилита сжатия : C:\Program Files\Exact Audio Copy\FLAC\FLAC.EXE
Дополнительные параметры : -6 -V -T "ARTIST=%a" -T "TITLE=%t" -T "ALBUM=%g" -T "DATE=%y" -T "TRACKNUMBER=%n" -T "GENRE=%m" -T "COMMENT=%e" %s -o %d

TOC извлечённого CD

Трек | Старт | Длительность | Начальный сектор | Конечный сектор
---------------------------------------------------------------------
1 | 0:00.00 | 2:30.36 | 0 | 11285
2 | 2:30.36 | 2:21.74 | 11286 | 21934
3 | 4:52.35 | 2:43.03 | 21935 | 34162
4 | 7:35.38 | 2:29.27 | 34163 | 45364
5 | 10:04.65 | 2:18.59 | 45365 | 55773
6 | 12:23.49 | 2:47.14 | 55774 | 68312
7 | 15:10.63 | 2:39.62 | 68313 | 80299
8 | 17:50.50 | 2:07.60 | 80300 | 89884
9 | 19:58.35 | 2:23.61 | 89885 | 100670
10 | 22:22.21 | 2:29.62 | 100671 | 111907
11 | 24:52.08 | 2:39.01 | 111908 | 123833
12 | 27:31.09 | 2:59.26 | 123834 | 137284
13 | 30:30.35 | 2:09.55 | 137285 | 147014
14 | 32:40.15 | 2:52.24 | 147015 | 159938
15 | 35:32.39 | 2:46.35 | 159939 | 172423
16 | 38:18.74 | 2:32.38 | 172424 | 183861
17 | 40:51.37 | 2:40.40 | 183862 | 195901
18 | 43:32.02 | 3:03.29 | 195902 | 209655
19 | 46:35.31 | 2:04.02 | 209656 | 218957
20 | 48:39.33 | 2:25.17 | 218958 | 229849

Характеристики диапазона извлечения и сообщения об ошибках

Выбранный диапазон

Имя файла K:\Lossless\1\Various - Beginner's Guide To Ska - CD1 The Sound Of Young Jamaica.wav

Пиковый уровень 93.5 %
Качество диапазона 100.0 %
CRC копии E984789E
Копирование... OK

Ошибок не произошло

Конец отчёта
Треклист
Ronald Wilson & The Skatalites African Queen
Alton Ellis Dance Crasher
Charlie Organaire Royal Charlie
Owen & Leon Silveras Next Door Neighbour
Lynn Taitt & The Boys Storm Warning
Justin Hinds & The Dominoes The Higher The Monkey Climbs
The Jamaicans Ba Ba Boom
The Paragons Only A Smile
Phyllis Dillon Don't Stay Away
Alton Ellis Why Birds Follow Spring
The Paragons The Tide Is High
The Techniques You Don't Care
Lord Creator Such Is Life
Joya Landis Moonlight Lover
The Gaylads Wha' She Do Now
The Paragons I've Got To Get Away
Count Machuckie Warfare
The Tennors Weather Report
The Gladiators Sweet Soul Music
John Holt Ali Baba
Exact Audio Copy V0.99 prebeta 4 from 23. January 2008

Отчёт EAC об извлечении, выполненном 16. мая 2011, 18:44

Various / Beginner's Guide To Ska - CD2: One Step Beyond - Ska, Rocksteady & Boss Reggae

Дисковод: HL-DT-STDVDRAM GE20NU10 Adapter: 5 ID: 0

Режим чтения : Достоверность
Использование точного потока : Да
Отключение кэша аудио : Да
Использование указателей C2 : Нет

Коррекция смещения при чтении : 667
Способность читать области Lead-in и Lead-out : Нет
Заполнение пропущенных сэмплов тишиной : Да
Удаление блоков с тишиной в начале и конце : Нет
При вычислениях CRC использовались нулевые сэмплы : Да
Интерфейс : Встроенный Win32-интерфейс для Win NT/2000

Выходной формат : Пользовательский кодировщик
Выбранный битрейт : 384 kBit/s
Качество : Высокий
Добавление ID3-тэга : Нет
Утилита сжатия : C:\Program Files\Exact Audio Copy\FLAC\FLAC.EXE
Дополнительные параметры : -6 -V -T "ARTIST=%a" -T "TITLE=%t" -T "ALBUM=%g" -T "DATE=%y" -T "TRACKNUMBER=%n" -T "GENRE=%m" -T "COMMENT=%e" %s -o %d

TOC извлечённого CD

Трек | Старт | Длительность | Начальный сектор | Конечный сектор
---------------------------------------------------------------------
1 | 0:00.00 | 2:45.52 | 0 | 12426
2 | 2:45.52 | 2:31.49 | 12427 | 23800
3 | 5:17.26 | 2:45.69 | 23801 | 36244
4 | 8:03.20 | 2:27.29 | 36245 | 47298
5 | 10:30.49 | 2:28.34 | 47299 | 58432
6 | 12:59.08 | 2:59.33 | 58433 | 71890
7 | 15:58.41 | 2:44.26 | 71891 | 84216
8 | 18:42.67 | 2:43.14 | 84217 | 96455
9 | 21:26.06 | 2:28.18 | 96456 | 107573
10 | 23:54.24 | 2:07.74 | 107574 | 117172
11 | 26:02.23 | 2:42.05 | 117173 | 129327
12 | 28:44.28 | 2:35.04 | 129328 | 140956
13 | 31:19.32 | 2:32.59 | 140957 | 152415
14 | 33:52.16 | 2:20.14 | 152416 | 162929
15 | 36:12.30 | 2:28.40 | 162930 | 174069
16 | 38:40.70 | 2:00.24 | 174070 | 183093
17 | 40:41.19 | 3:02.21 | 183094 | 196764
18 | 43:43.40 | 2:25.24 | 196765 | 207663
19 | 46:08.64 | 1:58.24 | 207664 | 216537
20 | 48:07.13 | 2:40.02 | 216538 | 228539

Характеристики диапазона извлечения и сообщения об ошибках

Выбранный диапазон

Имя файла K:\Lossless\2\Various - Beginner's Guide To Ska - CD2 One Step Beyond - Ska, Rocksteady & Boss Reggae.wav

Пиковый уровень 99.8 %
Качество диапазона 100.0 %
CRC копии 566FC14B
Копирование... OK

Ошибок не произошло

Конец отчёта
Треклист
The Beat Mirror In The Bathroom
Selector Too Much Pressure
Bodysnatchers Ruder Than You
The Beat Hands Off She's Mine
Specials Ghost Town
Floyd Lloyd & The Potato Five Apartheid
Jennie Bellstar Mixed Feelings
Prince Buster & The Trojans Stack-A-Lee
Natural Rhythm Bluebeat & Ska
Ska Cubano Chango
Exact Audio Copy V0.99 prebeta 4 from 23. January 2008

Отчёт EAC об извлечении, выполненном 16. мая 2011, 19:25

Various / Beginner's Guide To Ska - CD3: Ska'd For Life - Two-Tone Revival & Beyond

Дисковод: HL-DT-STDVDRAM GE20NU10 Adapter: 5 ID: 0

Режим чтения : Достоверность
Использование точного потока : Да
Отключение кэша аудио : Да
Использование указателей C2 : Нет

Коррекция смещения при чтении : 667
Способность читать области Lead-in и Lead-out : Нет
Заполнение пропущенных сэмплов тишиной : Да
Удаление блоков с тишиной в начале и конце : Нет
При вычислениях CRC использовались нулевые сэмплы : Да
Интерфейс : Встроенный Win32-интерфейс для Win NT/2000

Выходной формат : Пользовательский кодировщик
Выбранный битрейт : 384 kBit/s
Качество : Высокий
Добавление ID3-тэга : Нет
Утилита сжатия : C:\Program Files\Exact Audio Copy\FLAC\FLAC.EXE
Дополнительные параметры : -6 -V -T "ARTIST=%a" -T "TITLE=%t" -T "ALBUM=%g" -T "DATE=%y" -T "TRACKNUMBER=%n" -T "GENRE=%m" -T "COMMENT=%e" %s -o %d

TOC извлечённого CD

Трек | Старт | Длительность | Начальный сектор | Конечный сектор
---------------------------------------------------------------------
1 | 0:00.00 | 3:08.04 | 0 | 14103
2 | 3:08.04 | 3:48.52 | 14104 | 31255
3 | 6:56.56 | 2:49.67 | 31256 | 43997
4 | 9:46.48 | 3:00.13 | 43998 | 57510
5 | 12:46.61 | 5:56.12 | 57511 | 84222
6 | 18:42.73 | 3:29.45 | 84223 | 99942
7 | 22:12.43 | 5:21.71 | 99943 | 124088
8 | 27:34.39 | 6:04.20 | 124089 | 151408
9 | 33:38.59 | 3:48.53 | 151409 | 168561
10 | 37:27.37 | 4:52.26 | 168562 | 190487

Характеристики диапазона извлечения и сообщения об ошибках

Выбранный диапазон

Имя файла K:\Lossless\3\Various - Beginner's Guide To Ska - CD3 Ska'd For Life - Two-Tone Revival & Beyond.wav

Пиковый уровень 99.8 %
Качество диапазона 100.0 %
CRC копии 6B50F980
Копирование... OK

Ошибок не произошло

Конец отчёта


Трекер:  [ 16-Дек-2011 21:51 ]

  

Скачать .torrent

Размер .torrent файла 16 KB


Размер: 673 MB
Хэш (hash) релиза: 15ffbdb525c16d043d4e911cb97deb7f2ecc0c7b

bot

Топик был перенесен в форум Reggae, Ska, Dub (video)

Перенес Ronaldo C

Хотите добавить комментарий к записи скачать торрент VA - Beginners Guide To Ska

!Обратная связь