Скачать через торрент музыку Апостол The Apostle - 1998 бесплатно без регистрации torrent

Если у вас наблюдаются проблемы со скриншотами, переходом по ссылками, скачиванием торрентов - проблемы в блокировщике рекламы AdBlock. #хорошегоДня!


Статистика раздачи
Размер:  310 MB   |    Зарегистрирован:  5 лет 8 месяцев   |    .torrent скачан:  35 раз   |   
Раздают:  1  
   
Загрузка...
 
Автор Сообщение

uzi2009

avatar uzi2009


Апостол / The Apostle



Жанр: Soundtrack
Год выпуска диска: 1998
Год выпуска фильма: 1997
Страна-производитель диска: USA
Издатель (лейбл): Rising Tide Entertainment
Номер по каталогу: 53058
Аудиокодек: FLAC (*.flac)
Тип рипа: tracks+.cue
Битрейт аудио: lossless
Продолжительность: 50:22
Наличие сканов в содержимом раздачи: да

Треклист:
01 - Steven Curtis Chapman - I Will Not Go Quietly
02 - Patty Loveless - Two Coats
03 - Lyle Lovett - I'm a Soldier in the Army of the Lord
04 - Rebecca Lynn Howard - Softly & Tenderly
05 - Gaither Vocal Band - There Is a River
06 - Johnny Cash - In the Garden
07 - Emmylou Harris and Robert Duvall - I Love to Tell the Story
08 - The Carter Family - Waitin' on the Far Side Banks of Jordan
09 - Sounds of Blackness - Victory Is Mine
10 - Lari White - There Is Power in the Blood
11 - Russ Taff - There Ain't No Grave (Gonna Hold My Body Down)
12 - Gary Chapman and Wynonna Judd - I'll Fly Away
13 - Dino Kartsonakis - Softly & Tenderly (reprise)
 
Exact Audio Copy V0.99 prebeta 5 from 4. May 2009

EAC extraction logfile from 1. October 2010, 23:44

Various / The Apostle Soundtrack

Used drive : PLEXTOR DVDR PX-760A Adapter: 0 ID: 0

Read mode : SecureUtilize accurate stream : YesDefeat audio cache : YesMake use of C2 pointers : No

Read offset correction : 30Overread into Lead-In and Lead-Out : YesFill up missing offset samples with silence : YesDelete leading and trailing silent blocks : NoNull samples used in CRC calculations : YesUsed interface : Native Win32 interface for Win NT & 2000Gap handling : Appended to previous track

Used output format : User Defined EncoderSelected bitrate : 1024 kBit/sQuality : HighAdd ID3 tag : NoCommand line compressor : C:\Program Files\FLAC\flac.exeAdditional command line options : -V -8 -T "artist=%a" -T "title=%t" -T "album=%g" -T "date=%y" -T "tracknumber=%n" -T "genre=%m" -T "comment=EAC FLAC -8" %s

TOC of the extracted CD

Track | Start | Length | Start sector | End sector --------------------------------------------------------- 1 | 0:00.00 | 3:42.03 | 0 | 16652 2 | 3:42.03 | 3:19.19 | 16653 | 31596 3 | 7:01.22 | 3:30.39 | 31597 | 47385 4 | 10:31.61 | 3:04.18 | 47386 | 61203 5 | 13:36.04 | 4:25.03 | 61204 | 81081 6 | 18:01.07 | 3:15.65 | 81082 | 95771 7 | 21:16.72 | 3:43.47 | 95772 | 112543 8 | 25:00.44 | 3:12.59 | 112544 | 127002 9 | 28:13.28 | 3:31.47 | 127003 | 142874 10 | 31:45.00 | 5:18.48 | 142875 | 166772 11 | 37:03.48 | 4:53.04 | 166773 | 188751 12 | 41:56.52 | 3:46.59 | 188752 | 205760 13 | 45:43.36 | 4:36.62 | 205761 | 226522

Track 1

Filename L:\Torrents\Various Artists - The Apostle Soundtrack (1998) [FLAC]\01 - Steven Curtis Chapman - I Will Not Go Quietly.wav

Pre-gap length 0:00:02.00

Peak level 97.1 % Track quality 100.0 % Test CRC BCF166AB Copy CRC BCF166AB Accurately ripped (confidence 11) [EBFDF5CD] Copy OK

Track 2

Filename L:\Torrents\Various Artists - The Apostle Soundtrack (1998) [FLAC]\02 - Patty Loveless - Two Coats.wav

Peak level 100.0 % Track quality 99.9 % Test CRC 9A4A4131 Copy CRC 9A4A4131 Accurately ripped (confidence 10) [8A8D6F16] Copy OK

Track 3

Filename L:\Torrents\Various Artists - The Apostle Soundtrack (1998) [FLAC]\03 - Lyle Lovett - I'm a Soldier in the Army of the Lord.wav

Peak level 96.0 % Track quality 99.9 % Test CRC 16CF318A Copy CRC 16CF318A Accurately ripped (confidence 10) [44DF330C] Copy OK

Track 4

Filename L:\Torrents\Various Artists - The Apostle Soundtrack (1998) [FLAC]\04 - Rebecca Lynn Howard - Softly & Tenderly.wav

Pre-gap length 0:00:02.17

Peak level 72.6 % Track quality 100.0 % Test CRC FBC31CAB Copy CRC FBC31CAB Accurately ripped (confidence 10) [1355E75C] Copy OK

Track 5

Filename L:\Torrents\Various Artists - The Apostle Soundtrack (1998) [FLAC]\05 - Gaither Vocal Band - There Is a River.wav

Pre-gap length 0:00:00.06

Peak level 91.8 % Track quality 100.0 % Test CRC A1B48710 Copy CRC A1B48710 Accurately ripped (confidence 10) [7BA874E5] Copy OK

Track 6

Filename L:\Torrents\Various Artists - The Apostle Soundtrack (1998) [FLAC]\06 - Johnny Cash - In the Garden.wav

Pre-gap length 0:00:01.45

Peak level 87.7 % Track quality 100.0 % Test CRC E874BACF Copy CRC E874BACF Accurately ripped (confidence 10) [AD4C1275] Copy OK

Track 7

Filename L:\Torrents\Various Artists - The Apostle Soundtrack (1998) [FLAC]\07 - Emmylou Harris and Robert Duvall - I Love to Tell the Story.wav

Pre-gap length 0:00:00.25

Peak level 96.6 % Track quality 100.0 % Test CRC 4BEC410E Copy CRC 4BEC410E Accurately ripped (confidence 10) [BFC268BC] Copy OK

Track 8

Filename L:\Torrents\Various Artists - The Apostle Soundtrack (1998) [FLAC]\08 - The Carter Family - Waitin' on the Far Side Banks of Jordan.wav

Pre-gap length 0:00:00.37

Peak level 97.0 % Track quality 100.0 % Test CRC 73066852 Copy CRC 73066852 Accurately ripped (confidence 10) [4AF25AA1] Copy OK

Track 9

Filename L:\Torrents\Various Artists - The Apostle Soundtrack (1998) [FLAC]\09 - Sounds of Blackness - Victory Is Mine.wav

Pre-gap length 0:00:00.41

Peak level 97.2 % Track quality 100.0 % Test CRC 6DADD6F5 Copy CRC 6DADD6F5 Accurately ripped (confidence 10) [48BB5C50] Copy OK

Track 10

Filename L:\Torrents\Various Artists - The Apostle Soundtrack (1998) [FLAC]\10 - Lari White - There Is Power in the Blood.wav

Peak level 97.2 % Track quality 100.0 % Test CRC 752C8041 Copy CRC 752C8041 Accurately ripped (confidence 10) [3B8EA20E] Copy OK

Track 11

Filename L:\Torrents\Various Artists - The Apostle Soundtrack (1998) [FLAC]\11 - Russ Taff - There Ain't No Grave (Gonna Hold My Body Down).wav

Pre-gap length 0:00:00.20

Peak level 99.6 % Track quality 100.0 % Test CRC 35DAD4AB Copy CRC 35DAD4AB Accurately ripped (confidence 10) [D902F401] Copy OK

Track 12

Filename L:\Torrents\Various Artists - The Apostle Soundtrack (1998) [FLAC]\12 - Gary Chapman and Wynonna Judd - I'll Fly Away.wav

Peak level 97.2 % Track quality 99.9 % Test CRC 29935AC8 Copy CRC 29935AC8 Accurately ripped (confidence 10) [1A6EC015] Copy OK

Track 13

Filename L:\Torrents\Various Artists - The Apostle Soundtrack (1998) [FLAC]\13 - Dino Kartsonakis - Softly & Tenderly (reprise).wav

Peak level 96.2 % Track quality 100.0 % Test CRC A34D2ED4 Copy CRC A34D2ED4 Accurately ripped (confidence 9) [F4ABE651] Copy OK

All tracks accurately ripped

No errors occurred

End of status report
 
REM GENRE SoundtrackREM DATE 1998REM DISCID A90BCC0DREM COMMENT "ExactAudioCopy v0.99pb5"PERFORMER "Various"TITLE "The Apostle Soundtrack"FILE "01 - Steven Curtis Chapman - I Will Not Go Quietly.flac" WAVE TRACK 01 AUDIO TITLE "I Will Not Go Quietly" PERFORMER "Steven Curtis Chapman" INDEX 01 00:00:00FILE "02 - Patty Loveless - Two Coats.flac" WAVE TRACK 02 AUDIO TITLE "Two Coats" PERFORMER "Patty Loveless" INDEX 01 00:00:00FILE "03 - Lyle Lovett - I'm a Soldier in the Army of the Lord.flac" WAVE TRACK 03 AUDIO TITLE "I'm a Soldier in the Army of the Lord" PERFORMER "Lyle Lovett" INDEX 01 00:00:00 TRACK 04 AUDIO TITLE "Softly & Tenderly" PERFORMER "Rebecca Lynn Howard" INDEX 00 03:28:22FILE "04 - Rebecca Lynn Howard - Softly & Tenderly.flac" WAVE INDEX 01 00:00:00 TRACK 05 AUDIO TITLE "There Is a River" PERFORMER "Gaither Vocal Band" INDEX 00 03:04:12FILE "05 - Gaither Vocal Band - There Is a River.flac" WAVE INDEX 01 00:00:00 TRACK 06 AUDIO TITLE "In the Garden" PERFORMER "Johnny Cash" INDEX 00 04:23:33FILE "06 - Johnny Cash - In the Garden.flac" WAVE INDEX 01 00:00:00 TRACK 07 AUDIO TITLE "I Love to Tell the Story" PERFORMER "Emmylou Harris and Robert Duvall" INDEX 00 03:15:40FILE "07 - Emmylou Harris and Robert Duvall - I Love to Tell the Story.flac" WAVE INDEX 01 00:00:00 TRACK 08 AUDIO TITLE "Waitin' on the Far Side Banks of Jordan" PERFORMER "The Carter Family" INDEX 00 03:43:10FILE "08 - The Carter Family - Waitin' on the Far Side Banks of Jordan.flac" WAVE INDEX 01 00:00:00 TRACK 09 AUDIO TITLE "Victory Is Mine" PERFORMER "Sounds of Blackness" INDEX 00 03:12:18FILE "09 - Sounds of Blackness - Victory Is Mine.flac" WAVE INDEX 01 00:00:00FILE "10 - Lari White - There Is Power in the Blood.flac" WAVE TRACK 10 AUDIO TITLE "There Is Power in the Blood" PERFORMER "Lari White" INDEX 01 00:00:00 TRACK 11 AUDIO TITLE "There Ain't No Grave (Gonna Hold My Body Down)" PERFORMER "Russ Taff" INDEX 00 05:18:28FILE "11 - Russ Taff - There Ain't No Grave (Gonna Hold My Body Down).flac" WAVE INDEX 01 00:00:00FILE "12 - Gary Chapman and Wynonna Judd - I'll Fly Away.flac" WAVE TRACK 12 AUDIO TITLE "I'll Fly Away" PERFORMER "Gary Chapman and Wynonna Judd" INDEX 01 00:00:00FILE "13 - Dino Kartsonakis - Softly & Tenderly (reprise).flac" WAVE TRACK 13 AUDIO TITLE "Softly & Tenderly (reprise)" PERFORMER "Dino Kartsonakis" INDEX 01 00:00:00
 
-----------------------

DON'T MODIFY THIS FILE

-----------------------

PERFORMER: auCDtect Task Manager, ver. 1.5.1RC3 build 1.5.1.4Copyright (c) 2008-2010 y-soft. All rights reservedhttp://y-soft.org

ANALYZER: auCDtect: CD records authenticity detector, version 0.8.2Copyright (c) 2004 Oleg Berngardt. All rights reserved.Copyright (c) 2004 Alexander Djourik. All rights reserved.

FILE: 13 - Dino Kartsonakis - Softly & Tenderly (reprise).flac Size: 26000551 Hash: 4E56E5DD32846CE30824F205492F2BDA Accuracy: -m0 Conclusion: CDDA 100% Signature: C5541504043906CBA74F4FABA21008DAB4FB0832FILE: 12 - Gary Chapman and Wynonna Judd - I'll Fly Away.flac Size: 25070984 Hash: 572C04ED4C03522DBA0457FD4D5C02D9 Accuracy: -m0 Conclusion: CDDA 100% Signature: DA1A33E973998D1CA6DECACC00C641C70F15FF10FILE: 11 - Russ Taff - There Ain't No Grave (Gonna Hold My Body Down).flac Size: 34410456 Hash: 90E766BB4DC826972350FD90446F0B4B Accuracy: -m0 Conclusion: ??? Signature: 1C344E9513BAB9946A033E968BD269192DEE404FFILE: 10 - Lari White - There Is Power in the Blood.flac Size: 33499230 Hash: 2FFA4E31C4AA759E53AFDE1B6A9F87EB Accuracy: -m0 Conclusion: CDDA 100% Signature: 3DE9F91FFF1C2D16A36B01F2B1FFC0F4AB03D155FILE: 09 - Sounds of Blackness - Victory Is Mine.flac Size: 26907193 Hash: 3E6EE3526D93FA3C5AC7080E97C979F1 Accuracy: -m0 Conclusion: CDDA 100% Signature: 909C972EB4CAA093738C1C8C74E37F344C64839FFILE: 08 - The Carter Family - Waitin' on the Far Side Banks of Jordan.flac Size: 20957804 Hash: 7F159D54A5547FF312E400781FD0AA39 Accuracy: -m0 Conclusion: CDDA 100% Signature: C987775082EC09EC733CDBDD56C63E1F3EDB29A5FILE: 07 - Emmylou Harris and Robert Duvall - I Love to Tell the Story.flac Size: 23740783 Hash: 9AE83C6497F869F949CDAED89FF53AB9 Accuracy: -m0 Conclusion: CDDA 100% Signature: 0C01333E703C9F0AFD11E8E0D654514D00AA74DAFILE: 06 - Johnny Cash - In the Garden.flac Size: 14762824 Hash: F217CA439CC531FAAC27362A8F9A1EBD Accuracy: -m0 Conclusion: CDDA 99% Signature: 046A8A4D0426474D082D207F03E2BC407381AF69FILE: 05 - Gaither Vocal Band - There Is a River.flac Size: 27531320 Hash: F3C018631C621BADB7E9FBB19ED91528 Accuracy: -m0 Conclusion: CDDA 100% Signature: 3BC3CFA02FA4CA7A5653BC6B1604575023E81307FILE: 04 - Rebecca Lynn Howard - Softly & Tenderly.flac Size: 16040429 Hash: 0AC888695C08681ECF21BF32347DFAA8 Accuracy: -m0 Conclusion: CDDA 100% Signature: F5251333CC21C664FE8F5357E9935F850222C4A6FILE: 03 - Lyle Lovett - I'm a Soldier in the Army of the Lord.flac Size: 25339625 Hash: 7EFCAFC82D86B541749FCE560C4A8240 Accuracy: -m0 Conclusion: CDDA 100% Signature: 0220BF6537BCAF1FF05AF57F78925231E9724258FILE: 02 - Patty Loveless - Two Coats.flac Size: 20631640 Hash: BB38776027FCFD935D4D4AC784496A36 Accuracy: -m0 Conclusion: CDDA 100% Signature: 7E933C3A637A25748488EDEECD9D8AA3CF4CFABEFILE: 01 - Steven Curtis Chapman - I Will Not Go Quietly.flac Size: 28179400 Hash: B74E188C786F4079FECCCC37821F45F1 Accuracy: -m0 Conclusion: CDDA 100% Signature: D5B320D0F0BB0F9366AA9350718D8F4588590971
Доп. информация: THE APOSTLE won the 1999 Grammy Award for Best Southern, Country, Or Bluegrass Gospel Album.

Отличный диск для тех, кто любит музыку в стиле "госпел" - белый (кантри) и чёрный - одним словом - южный.
Специально для фильма были записаны только три песни, (в треклисте это первые три), но остальные гармонично дополнили данный саундтрек, сделав его самостоятельной художественной ценностью. Хотя фильм тоже очень хорош!

Трекер:  [ 19-Янв-2012 22:34 ]

  

Скачать .torrent

Размер .torrent файла 14 KB


Размер: 310 MB
Хэш (hash) релиза: d249dd1d9aa0e1825809fb6c91d3123bdeb10bb5

bot

Топик был перенесен в форум Саундтреки к фильмам и мультфильмам (lossless)

Перенес uzi2009

Хотите добавить комментарий к записи скачать торрент Апостол The Apostle - 1998

!Обратная связь