Скачать через торрент музыку На грани The Edge бесплатно без регистрации torrent

Если у вас наблюдаются проблемы со скриншотами, переходом по ссылками, скачиванием торрентов - проблемы в блокировщике рекламы AdBlock. #хорошегоДня!


Статистика раздачи
Размер:  164 MB   |    Зарегистрирован:  5 лет 8 месяцев   |    .torrent скачан:  39 раз   |   
Раздают:  1  
   
Загрузка...
 
Автор Сообщение

uzi2009

avatar uzi2009


На грани / The Edge



Жанр: Score
Композитор: Jerry Goldsmith
Год выпуска диска: 1997
Страна-производитель диска: США
Издатель (лейбл): BMG Classics/RCA Victor
Номер по каталогу: 09026-68950-2
Аудиокодек: FLAC (*.flac)
Тип рипа: tracks+.cue
Битрейт аудио: lossless
Продолжительность: 38:04
Наличие сканов в содержимом раздачи: да

Треклист:
01. Lost In The Wild (03:01)
02. The Ravine (04:38)
03. Birds (02:24)
04. Mighty Hunter (01:34)
05. Bitter Coffee (03:03)
06. Stalking (05:47)
07. Deadfall (06:15)
08. The River (02:21)
09. Rescued (06:04)
10. The Edge (02:57)
 
Exact Audio Copy V0.99 prebeta 4 from 23. January 2008

EAC extraction logfile from 14. January 2009, 23:04

Jerry Goldsmith / Edge, The

Used drive : PIONEER DVD-RW DVR-115D Adapter: 0 ID: 1

Read mode : SecureUtilize accurate stream : YesDefeat audio cache : YesMake use of C2 pointers : No

Read offset correction : 48Overread into Lead-In and Lead-Out : NoFill up missing offset samples with silence : YesDelete leading and trailing silent blocks : NoNull samples used in CRC calculations : YesUsed interface : Installed external ASPI interfaceGap handling : Appended to previous track

Used output format : User Defined EncoderSelected bitrate : 1024 kBit/sQuality : HighAdd ID3 tag : NoCommand line compressor : C:\Program Files\Exact Audio Copy\Flac\flac.exeAdditional command line options : -V -8 -T "artist=%a" -T "title=%t" -T "album=%g" -T "date=%y" -T "tracknumber=%n" -T "genre=%m" %s

TOC of the extracted CD

Track | Start | Length | Start sector | End sector --------------------------------------------------------- 1 | 0:00.00 | 3:02.45 | 0 | 13694 2 | 3:02.45 | 4:38.30 | 13695 | 34574 3 | 7:41.00 | 2:24.22 | 34575 | 45396 4 | 10:05.22 | 1:33.68 | 45397 | 52439 5 | 11:39.15 | 3:03.00 | 52440 | 66164 6 | 14:42.15 | 5:46.60 | 66165 | 92174 7 | 20:29.00 | 6:15.35 | 92175 | 120334 8 | 26:44.35 | 2:21.17 | 120335 | 130926 9 | 29:05.52 | 6:04.15 | 130927 | 158241 10 | 35:09.67 | 2:53.63 | 158242 | 171279

Track 1

Filename K:\Music\FLAC\Edge, The (1997, .flac) - Jerry Goldsmith\01 - Lost in the Wild.wav

Pre-gap length 0:00:02.00

Peak level 97.7 % Track quality 99.9 % Test CRC B97C4A8A Copy CRC B97C4A8A Cannot be verified as accurate (confidence 3) [BF42A009], AccurateRip returned [F5D01C59] Copy OK

Track 2

Filename K:\Music\FLAC\Edge, The (1997, .flac) - Jerry Goldsmith\02 - The Ravine.wav

Pre-gap length 0:00:03.02

Peak level 97.7 % Track quality 100.0 % Test CRC 474FB3A4 Copy CRC 474FB3A4 Cannot be verified as accurate (confidence 3) [5B45D605], AccurateRip returned [B7223EAC] Copy OK

Track 3

Filename K:\Music\FLAC\Edge, The (1997, .flac) - Jerry Goldsmith\03 - Birds.wav

Pre-gap length 0:00:02.96

Peak level 97.7 % Track quality 100.0 % Test CRC CF420FD5 Copy CRC CF420FD5 Cannot be verified as accurate (confidence 3) [07FADFC9], AccurateRip returned [A8BE4DE2] Copy OK

Track 4

Filename K:\Music\FLAC\Edge, The (1997, .flac) - Jerry Goldsmith\04 - Mighty Hunter.wav

Pre-gap length 0:00:02.82

Peak level 97.7 % Track quality 100.0 % Test CRC 3D8DB154 Copy CRC 3D8DB154 Cannot be verified as accurate (confidence 3) [331C3D7D], AccurateRip returned [94C40F40] Copy OK

Track 5

Filename K:\Music\FLAC\Edge, The (1997, .flac) - Jerry Goldsmith\05 - Bitter Coffee.wav

Pre-gap length 0:00:02.84

Peak level 68.2 % Track quality 100.0 % Test CRC 43252AFB Copy CRC 43252AFB Cannot be verified as accurate (confidence 2) [4CC4FCC2], AccurateRip returned [B45C527B] Copy OK

Track 6

Filename K:\Music\FLAC\Edge, The (1997, .flac) - Jerry Goldsmith\06 - Stalking.wav

Pre-gap length 0:00:02.81

Peak level 95.3 % Track quality 100.0 % Test CRC D97598F1 Copy CRC D97598F1 Cannot be verified as accurate (confidence 2) [61FB9101], AccurateRip returned [FCD8BE22] Copy OK

Track 7

Filename K:\Music\FLAC\Edge, The (1997, .flac) - Jerry Goldsmith\07 - Deadfall.wav

Pre-gap length 0:00:02.77

Peak level 95.5 % Track quality 100.0 % Test CRC BE4E9A05 Copy CRC BE4E9A05 Cannot be verified as accurate (confidence 3) [79AA606E], AccurateRip returned [E6A86A2C] Copy OK

Track 8

Filename K:\Music\FLAC\Edge, The (1997, .flac) - Jerry Goldsmith\08 - The River.wav

Pre-gap length 0:00:02.65

Peak level 52.2 % Track quality 100.0 % Test CRC 6CC30ADC Copy CRC 6CC30ADC Cannot be verified as accurate (confidence 2) [42AF5FB6], AccurateRip returned [CD080094] Copy OK

Track 9

Filename K:\Music\FLAC\Edge, The (1997, .flac) - Jerry Goldsmith\09 - Rescued.wav

Pre-gap length 0:00:02.86

Peak level 92.5 % Track quality 100.0 % Test CRC 1E39BFF6 Copy CRC 1E39BFF6 Cannot be verified as accurate (confidence 3) [01BE6C2A], AccurateRip returned [F58FB01F] Copy OK

Track 10

Filename K:\Music\FLAC\Edge, The (1997, .flac) - Jerry Goldsmith\10 - The Edge.wav

Pre-gap length 0:00:02.97

Peak level 97.7 % Track quality 100.0 % Test CRC 4633081D Copy CRC 4633081D Cannot be verified as accurate (confidence 2) [8CD70D1E], AccurateRip returned [183E4566] Copy OK

No tracks could be verified as accurateYou may have a different pressing from the one(s) in the database

No errors occurred

End of status report
 
REM GENRE SoundtrackREM DATE 1997REM DISCID 7108EB0AREM COMMENT "ExactAudioCopy v0.99pb4"PERFORMER "Jerry Goldsmith"TITLE "The Edge"FILE "01 - Lost in the Wild.wav" WAVE TRACK 01 AUDIO TITLE "Lost in the Wild" PERFORMER "Jerry Goldsmith" INDEX 01 00:00:00 TRACK 02 AUDIO TITLE "The Ravine" PERFORMER "Jerry Goldsmith" INDEX 00 02:59:43FILE "02 - The Ravine.wav" WAVE INDEX 01 00:00:00 TRACK 03 AUDIO TITLE "Birds" PERFORMER "Jerry Goldsmith" INDEX 00 04:35:33FILE "03 - Birds.wav" WAVE INDEX 01 00:00:00 TRACK 04 AUDIO TITLE "Mighty Hunter" PERFORMER "Jerry Goldsmith" INDEX 00 02:21:35FILE "04 - Mighty Hunter.wav" WAVE INDEX 01 00:00:00 TRACK 05 AUDIO TITLE "Bitter Coffee" PERFORMER "Jerry Goldsmith" INDEX 00 01:31:05FILE "05 - Bitter Coffee.wav" WAVE INDEX 01 00:00:00 TRACK 06 AUDIO TITLE "Stalking" PERFORMER "Jerry Goldsmith" INDEX 00 03:00:14FILE "06 - Stalking.wav" WAVE INDEX 01 00:00:00 TRACK 07 AUDIO TITLE "Deadfall" PERFORMER "Jerry Goldsmith" INDEX 00 05:44:02FILE "07 - Deadfall.wav" WAVE INDEX 01 00:00:00 TRACK 08 AUDIO TITLE "The River" PERFORMER "Jerry Goldsmith" INDEX 00 06:12:61FILE "08 - The River.wav" WAVE INDEX 01 00:00:00 TRACK 09 AUDIO TITLE "Rescued" PERFORMER "Jerry Goldsmith" INDEX 00 02:18:27FILE "09 - Rescued.wav" WAVE INDEX 01 00:00:00 TRACK 10 AUDIO TITLE "The Edge" PERFORMER "Jerry Goldsmith" INDEX 00 06:01:17FILE "10 - The Edge.wav" WAVE INDEX 01 00:00:00
 
Started at: понедельник, 05. 12. 2011. - 0:24.04

10 files found

01 -===- C:\!_TORRENT\Jerry Goldsmith - The Edge (1997) [FLAC]\01 - Lost in the Wild.flac Extracted successfully Conclusion: This track looks like CDDA with probability 99% Tempfile successfully deleted.

02 -===- C:\!_TORRENT\Jerry Goldsmith - The Edge (1997) [FLAC]\02 - The Ravine.flac Extracted successfully Conclusion: This track looks like CDDA with probability 100% Tempfile successfully deleted.

03 -===- C:\!_TORRENT\Jerry Goldsmith - The Edge (1997) [FLAC]\03 - Birds.flac Extracted successfully Conclusion: This track looks like CDDA with probability 100% Tempfile successfully deleted.

04 -===- C:\!_TORRENT\Jerry Goldsmith - The Edge (1997) [FLAC]\04 - Mighty Hunter.flac Extracted successfully Conclusion: This track looks like CDDA with probability 100% Tempfile successfully deleted.

05 -===- C:\!_TORRENT\Jerry Goldsmith - The Edge (1997) [FLAC]\05 - Bitter Coffee.flac Extracted successfully Conclusion: This track looks like CDDA with probability 100% Tempfile successfully deleted.

06 -===- C:\!_TORRENT\Jerry Goldsmith - The Edge (1997) [FLAC]\06 - Stalking.flac Extracted successfully Conclusion: This track looks like CDDA with probability 76% Tempfile successfully deleted.

07 -===- C:\!_TORRENT\Jerry Goldsmith - The Edge (1997) [FLAC]\07 - Deadfall.flac Extracted successfully Conclusion: This track looks like CDDA with probability 100% Tempfile successfully deleted.

08 -===- C:\!_TORRENT\Jerry Goldsmith - The Edge (1997) [FLAC]\08 - The River.flac Extracted successfully Conclusion: This track looks like CDDA with probability 54% Tempfile successfully deleted.

09 -===- C:\!_TORRENT\Jerry Goldsmith - The Edge (1997) [FLAC]\09 - Rescued.flac Extracted successfully Conclusion: This track looks like CDDA with probability 94% Tempfile successfully deleted.

10 -===- C:\!_TORRENT\Jerry Goldsmith - The Edge (1997) [FLAC]\10 - The Edge.flac Extracted successfully Conclusion: This track looks like CDDA with probability 100% Tempfile successfully deleted.

Finished at: понедельник, 05. 12. 2011. - 0:27.51 (operation time: 0:03.46)


Трекер:  [ 19-Янв-2012 22:23 ]

  

Скачать .torrent

Размер .torrent файла 14 KB


Размер: 164 MB
Хэш (hash) релиза: 90ba73c0f34a536a68d3e85db58fbd59ff602013

bot

Топик был перенесен в форум Саундтреки к фильмам и мультфильмам (lossless)

Перенес uzi2009

Хотите добавить комментарий к записи скачать торрент На грани The Edge

!Обратная связь