Скачать через торрент музыку Кот в сапогах Puss In Boots бесплатно без регистрации torrent

Если у вас наблюдаются проблемы со скриншотами, переходом по ссылками, скачиванием торрентов - проблемы в блокировщике рекламы AdBlock. #хорошегоДня!


Статистика раздачи
Размер:  445 MB   |    Зарегистрирован:  5 лет 8 месяцев   |    .torrent скачан:  29 раз   |   
Раздают:  1  
   
Загрузка...
 
Автор Сообщение

uzi2009

avatar uzi2009


Кот в сапогах / Puss In Boots



Жанр: Score
Композитор: Henry Jackman
Год выпуска диска: 2011
Страна-производитель диска: USA (IFPI L327, Sony DADC US)
Издатель (лейбл): Sony Classical
Номер по каталогу: 88697-98542-2
EAN/UPC: 886979854222
Аудиокодек: FLAC (*.flac)
Тип рипа: tracks+.cue
Битрейт аудио: lossless
Продолжительность: 01:06:01
Источник: собственный рип
Наличие сканов в содержимом раздачи: да, 600 dpi
01. A Bad Kitty [0:02:04.42]
02. One Leche [0:02:01.00]
03. Jack And Jill [0:00:22.63]
04. Holy Erijoes [0:01:14.03]
05. Chasing Tail [0:01:09.12]
06. Diablo Rojo (Rodrigo Y Gabriela) [0:04:53.58]
07. Humpty Dumpty & Kitty Softpaws [0:02:42.27]
08. The Orphanage [0:04:29.53]
09. Honor And Justice [0:01:44.23]
10. That Fateful Night [0:02:35.39]
11. The Wagon Chase [0:02:58.68]
12. Team Effort [0:00:57.33]
13. Planting The Beans [0:02:09.62]
14. The Magic Beanstalk [0:01:17.25]
15. Castle In The Clouds [0:01:57.07]
16. Golden Goose Of Legend [0:06:38.11]
17. Hanuman (Rodrigo Y Gabriela) [0:03:39.37]
18. Confronting The Past [0:01:37.34]
19. I Was Always There [0:04:06.02]
20. Kitty-Cat Break-Out [0:01:35.50]
21. The Great Terror [0:07:56.09]
22. Farewell To San Ricardo [0:01:32.69]
23. The Puss Suite [0:03:09.44]
24. The Giant's Castle [0:03:08.59]

 
Exact Audio Copy V1.0 beta 3 from 29. August 2011

EAC extraction logfile from 5. December 2011, 14:53

Henry Jackman / Puss In Boots

Used drive : TSSTcorpCDDVDW TS-U633J Adapter: 0 ID: 1

Read mode : SecureUtilize accurate stream : YesDefeat audio cache : YesMake use of C2 pointers : No

Read offset correction : 6Overread into Lead-In and Lead-Out : NoFill up missing offset samples with silence : YesDelete leading and trailing silent blocks : NoNull samples used in CRC calculations : YesUsed interface : Native Win32 interface for Win NT & 2000Gap handling : Appended to previous track

Used output format : User Defined EncoderSelected bitrate : 768 kBit/sQuality : HighAdd ID3 tag : NoCommand line compressor : C:\Program Files\Exact Audio Copy\FLAC\FLAC.EXEAdditional command line options : -6 -V -T "ARTIST=%artist%" -T "TITLE=%title%" -T "ALBUM=%albumtitle%" -T "DATE=%year%" -T "TRACKNUMBER=%tracknr%" -T "GENRE=%genre%" -T "COMMENT=%comment%" -T "ALBUMARTIST=%albuminterpret%" -T "COMPOSER=%composer%" -T "DISCNUMBER=%cdnumber%" -T "TOTALDISCS=%totalcds%" -T "TOTALTRACKS=%numtracks%" %source% -o %dest%

TOC of the extracted CD

Track | Start | Length | Start sector | End sector --------------------------------------------------------- 1 | 0:00.00 | 2:04.42 | 0 | 9341 2 | 2:04.42 | 2:01.00 | 9342 | 18416 3 | 4:05.42 | 0:22.63 | 18417 | 20129 4 | 4:28.30 | 1:14.03 | 20130 | 25682 5 | 5:42.33 | 1:09.12 | 25683 | 30869 6 | 6:51.45 | 4:53.58 | 30870 | 52902 7 | 11:45.28 | 2:42.27 | 52903 | 65079 8 | 14:27.55 | 4:29.53 | 65080 | 85307 9 | 18:57.33 | 1:44.23 | 85308 | 93130 10 | 20:41.56 | 2:35.39 | 93131 | 104794 11 | 23:17.20 | 2:58.68 | 104795 | 118212 12 | 26:16.13 | 0:57.33 | 118213 | 122520 13 | 27:13.46 | 2:09.62 | 122521 | 132257 14 | 29:23.33 | 1:17.25 | 132258 | 138057 15 | 30:40.58 | 1:57.07 | 138058 | 146839 16 | 32:37.65 | 6:38.11 | 146840 | 176700 17 | 39:16.01 | 3:39.37 | 176701 | 193162 18 | 42:55.38 | 1:37.34 | 193163 | 200471 19 | 44:32.72 | 4:06.02 | 200472 | 218923 20 | 48:38.74 | 1:35.50 | 218924 | 226098 21 | 50:14.49 | 7:56.09 | 226099 | 261807 22 | 58:10.58 | 1:32.69 | 261808 | 268776 23 | 59:43.52 | 3:09.44 | 268777 | 282995 24 | 62:53.21 | 3:08.59 | 282996 | 297154

Track 1

Filename C:\Music\01 - Henry Jackman - A Bad Kitty.wav

Pre-gap length 0:00:02.00

Peak level 99.5 % Extraction speed 1.0 X Track quality 100.0 % Test CRC A09D533F Copy CRC A09D533F Track not present in AccurateRip database Copy OK

Track 2

Filename C:\Music\02 - Henry Jackman - One Leche.wav

Peak level 96.6 % Extraction speed 1.1 X Track quality 100.0 % Test CRC CBEB8A46 Copy CRC CBEB8A46 Track not present in AccurateRip database Copy OK

Track 3

Filename C:\Music\03 - Henry Jackman - Jack And Jill.wav

Peak level 84.5 % Extraction speed 0.5 X Track quality 100.0 % Test CRC 94781C6E Copy CRC 94781C6E Track not present in AccurateRip database Copy OK

Track 4

Filename C:\Music\04 - Henry Jackman - Holy Erijoes.wav

Peak level 98.9 % Extraction speed 0.7 X Track quality 99.8 % Test CRC 2E213CAA Copy CRC 2E213CAA Track not present in AccurateRip database Copy OK

Track 5

Filename C:\Music\05 - Henry Jackman - Chasing Tail.wav

Peak level 96.6 % Extraction speed 1.0 X Track quality 100.0 % Test CRC 79400B37 Copy CRC 79400B37 Track not present in AccurateRip database Copy OK

Track 6

Filename C:\Music\06 - Henry Jackman - Diablo Rojo (Rodrigo Y Gabriela).wav

Peak level 88.8 % Extraction speed 1.3 X Track quality 99.9 % Test CRC FBCABEA8 Copy CRC FBCABEA8 Track not present in AccurateRip database Copy OK

Track 7

Filename C:\Music\07 - Henry Jackman - Humpty Dumpty & Kitty Softpaws.wav

Peak level 93.0 % Extraction speed 1.2 X Track quality 99.9 % Test CRC B1169DB9 Copy CRC B1169DB9 Track not present in AccurateRip database Copy OK

Track 8

Filename C:\Music\08 - Henry Jackman - The Orphanage.wav

Peak level 99.7 % Extraction speed 1.6 X Track quality 100.0 % Test CRC 1C3152FF Copy CRC 1C3152FF Track not present in AccurateRip database Copy OK

Track 9

Filename C:\Music\09 - Henry Jackman - Honor And Justice.wav

Peak level 96.9 % Extraction speed 1.4 X Track quality 100.0 % Test CRC B8EC30B2 Copy CRC B8EC30B2 Track not present in AccurateRip database Copy OK

Track 10

Filename C:\Music\10 - Henry Jackman - That Fateful Night.wav

Peak level 98.0 % Extraction speed 1.6 X Track quality 100.0 % Test CRC 864EA20C Copy CRC 864EA20C Track not present in AccurateRip database Copy OK

Track 11

Filename C:\Music\11 - Henry Jackman - The Wagon Chase.wav

Peak level 98.7 % Extraction speed 1.7 X Track quality 100.0 % Test CRC EA0B35E5 Copy CRC EA0B35E5 Track not present in AccurateRip database Copy OK

Track 12

Filename C:\Music\12 - Henry Jackman - Team Effort.wav

Peak level 56.1 % Extraction speed 0.9 X Track quality 99.8 % Test CRC D9A7A25B Copy CRC D9A7A25B Track not present in AccurateRip database Copy OK

Track 13

Filename C:\Music\13 - Henry Jackman - Planting The Beans.wav

Peak level 97.2 % Extraction speed 1.3 X Track quality 99.9 % Test CRC 1D2341FB Copy CRC 1D2341FB Track not present in AccurateRip database Copy OK

Track 14

Filename C:\Music\14 - Henry Jackman - The Magic Beanstalk.wav

Peak level 96.6 % Extraction speed 1.1 X Track quality 99.8 % Test CRC D01A7BCA Copy CRC D01A7BCA Track not present in AccurateRip database Copy OK

Track 15

Filename C:\Music\15 - Henry Jackman - Castle In The Clouds.wav

Peak level 97.9 % Extraction speed 1.6 X Track quality 100.0 % Test CRC 8303A2E9 Copy CRC 8303A2E9 Track not present in AccurateRip database Copy OK

Track 16

Filename C:\Music\16 - Henry Jackman - Golden Goose Of Legend.wav

Peak level 98.0 % Extraction speed 2.1 X Track quality 100.0 % Test CRC FCA7FC04 Copy CRC FCA7FC04 Track not present in AccurateRip database Copy OK

Track 17

Filename C:\Music\17 - Henry Jackman - Hanuman (Rodrigo Y Gabriela).wav

Peak level 98.4 % Extraction speed 2.0 X Track quality 100.0 % Test CRC F5F79689 Copy CRC F5F79689 Track not present in AccurateRip database Copy OK

Track 18

Filename C:\Music\18 - Henry Jackman - Confronting The Past.wav

Peak level 98.7 % Extraction speed 1.7 X Track quality 100.0 % Test CRC 168E8121 Copy CRC 168E8121 Track not present in AccurateRip database Copy OK

Track 19

Filename C:\Music\19 - Henry Jackman - I Was Always There.wav

Peak level 98.8 % Extraction speed 1.9 X Track quality 99.9 % Test CRC C5E39287 Copy CRC C5E39287 Track not present in AccurateRip database Copy OK

Track 20

Filename C:\Music\20 - Henry Jackman - Kitty-Cat Break-Out.wav

Peak level 96.6 % Extraction speed 1.8 X Track quality 100.0 % Test CRC 3DD40F59 Copy CRC 3DD40F59 Track not present in AccurateRip database Copy OK

Track 21

Filename C:\Music\21 - Henry Jackman - The Great Terror.wav

Peak level 97.1 % Extraction speed 2.4 X Track quality 100.0 % Test CRC FA39F253 Copy CRC FA39F253 Track not present in AccurateRip database Copy OK

Track 22

Filename C:\Music\22 - Henry Jackman - Farewell To San Ricardo.wav

Peak level 96.6 % Extraction speed 1.9 X Track quality 100.0 % Test CRC 88D0F01E Copy CRC 88D0F01E Track not present in AccurateRip database Copy OK

Track 23

Filename C:\Music\23 - Henry Jackman - The Puss Suite.wav

Peak level 97.2 % Extraction speed 1.9 X Track quality 99.9 % Test CRC B9219F40 Copy CRC B9219F40 Track not present in AccurateRip database Copy OK

Track 24

Filename C:\Music\24 - Henry Jackman - The Giant's Castle.wav

Peak level 96.6 % Extraction speed 2.3 X Track quality 100.0 % Test CRC 7AE48C51 Copy CRC 7AE48C51 Track not present in AccurateRip database Copy OK

None of the tracks are present in the AccurateRip database

No errors occurred

End of status report

==== Log checksum 939EB984BCED861BCCDB0CA01E1738E8DED4CB12CAF55266E965D191A466B4E6 ====
 
REM GENRE SoundtrackREM DATE 2011REM DISCID 740F7A18REM COMMENT "ExactAudioCopy v1.0b3"PERFORMER "Henry Jackman"TITLE "Puss In Boots"FILE "01 - Henry Jackman - A Bad Kitty.wav" WAVE TRACK 01 AUDIO TITLE "A Bad Kitty" PERFORMER "Henry Jackman" INDEX 01 00:00:00FILE "02 - Henry Jackman - One Leche.wav" WAVE TRACK 02 AUDIO TITLE "One Leche" PERFORMER "Henry Jackman" INDEX 01 00:00:00FILE "03 - Henry Jackman - Jack And Jill.wav" WAVE TRACK 03 AUDIO TITLE "Jack And Jill" PERFORMER "Henry Jackman" INDEX 01 00:00:00FILE "04 - Henry Jackman - Holy Erijoes.wav" WAVE TRACK 04 AUDIO TITLE "Holy Erijoes" PERFORMER "Henry Jackman" INDEX 01 00:00:00FILE "05 - Henry Jackman - Chasing Tail.wav" WAVE TRACK 05 AUDIO TITLE "Chasing Tail" PERFORMER "Henry Jackman" INDEX 01 00:00:00FILE "06 - Henry Jackman - Diablo Rojo (Rodrigo Y Gabriela).wav" WAVE TRACK 06 AUDIO TITLE "Diablo Rojo (Rodrigo Y Gabriela)" PERFORMER "Henry Jackman" INDEX 01 00:00:00FILE "07 - Henry Jackman - Humpty Dumpty & Kitty Softpaws.wav" WAVE TRACK 07 AUDIO TITLE "Humpty Dumpty & Kitty Softpaws" PERFORMER "Henry Jackman" INDEX 01 00:00:00FILE "08 - Henry Jackman - The Orphanage.wav" WAVE TRACK 08 AUDIO TITLE "The Orphanage" PERFORMER "Henry Jackman" INDEX 01 00:00:00FILE "09 - Henry Jackman - Honor And Justice.wav" WAVE TRACK 09 AUDIO TITLE "Honor And Justice" PERFORMER "Henry Jackman" INDEX 01 00:00:00FILE "10 - Henry Jackman - That Fateful Night.wav" WAVE TRACK 10 AUDIO TITLE "That Fateful Night" PERFORMER "Henry Jackman" INDEX 01 00:00:00FILE "11 - Henry Jackman - The Wagon Chase.wav" WAVE TRACK 11 AUDIO TITLE "The Wagon Chase" PERFORMER "Henry Jackman" INDEX 01 00:00:00FILE "12 - Henry Jackman - Team Effort.wav" WAVE TRACK 12 AUDIO TITLE "Team Effort" PERFORMER "Henry Jackman" INDEX 01 00:00:00FILE "13 - Henry Jackman - Planting The Beans.wav" WAVE TRACK 13 AUDIO TITLE "Planting The Beans" PERFORMER "Henry Jackman" INDEX 01 00:00:00FILE "14 - Henry Jackman - The Magic Beanstalk.wav" WAVE TRACK 14 AUDIO TITLE "The Magic Beanstalk" PERFORMER "Henry Jackman" INDEX 01 00:00:00FILE "15 - Henry Jackman - Castle In The Clouds.wav" WAVE TRACK 15 AUDIO TITLE "Castle In The Clouds" PERFORMER "Henry Jackman" INDEX 01 00:00:00FILE "16 - Henry Jackman - Golden Goose Of Legend.wav" WAVE TRACK 16 AUDIO TITLE "Golden Goose Of Legend" PERFORMER "Henry Jackman" INDEX 01 00:00:00FILE "17 - Henry Jackman - Hanuman (Rodrigo Y Gabriela).wav" WAVE TRACK 17 AUDIO TITLE "Hanuman (Rodrigo Y Gabriela)" PERFORMER "Henry Jackman" INDEX 01 00:00:00FILE "18 - Henry Jackman - Confronting The Past.wav" WAVE TRACK 18 AUDIO TITLE "Confronting The Past" PERFORMER "Henry Jackman" INDEX 01 00:00:00FILE "19 - Henry Jackman - I Was Always There.wav" WAVE TRACK 19 AUDIO TITLE "I Was Always There" PERFORMER "Henry Jackman" INDEX 01 00:00:00FILE "20 - Henry Jackman - Kitty-Cat Break-Out.wav" WAVE TRACK 20 AUDIO TITLE "Kitty-Cat Break-Out" PERFORMER "Henry Jackman" INDEX 01 00:00:00FILE "21 - Henry Jackman - The Great Terror.wav" WAVE TRACK 21 AUDIO TITLE "The Great Terror" PERFORMER "Henry Jackman" INDEX 01 00:00:00FILE "22 - Henry Jackman - Farewell To San Ricardo.wav" WAVE TRACK 22 AUDIO TITLE "Farewell To San Ricardo" PERFORMER "Henry Jackman" INDEX 01 00:00:00FILE "23 - Henry Jackman - The Puss Suite.wav" WAVE TRACK 23 AUDIO TITLE "The Puss Suite" PERFORMER "Henry Jackman" INDEX 01 00:00:00FILE "24 - Henry Jackman - The Giant's Castle.wav" WAVE TRACK 24 AUDIO TITLE "The Giant's Castle" PERFORMER "Henry Jackman" INDEX 01 00:00:00


Трекер:  [ 19-Янв-2012 22:21 ]

  

Скачать .torrent

Размер .torrent файла 72 KB


Размер: 445 MB
Хэш (hash) релиза: 73dd1ba73c07e931a7561105671c4dd641acf0f9

Торренты, похожие на Кот в сапогах Puss In Boots скачать торрент

Форум Название Автор Размер S L Добавлен
Саундтреки к фильмам и мультфильмам (mp3) ·· [Soundtrack / Unofficial] Шрек | Кот в сапогах | Shrek | Puss In Boots [2001-2011, MP3, 320 kbps] Galfimbul 453737617433 MB 0 0 1428218168

10:16

5-Апр-15

bot

Топик был перенесен в форум Саундтреки к фильмам и мультфильмам (lossless)

Перенес uzi2009

Хотите добавить комментарий к записи скачать торрент Кот в сапогах Puss In Boots

!Обратная связь