Скачать через торрент музыку The Film Music of Erich Wolfgang Korngold бесплатно без регистрации torrent

Если у вас наблюдаются проблемы со скриншотами, переходом по ссылками, скачиванием торрентов - проблемы в блокировщике рекламы AdBlock. #хорошегоДня!


Статистика раздачи
Размер:  222 MB   |    Зарегистрирован:  5 лет 7 месяцев   |    .torrent скачан:  35 раз   |   
Раздают:  1  
   
Загрузка...
 
Автор Сообщение

Galfimbul

avatar Galfimbul


The Film Music of Erich Wolfgang Korngold

Жанр: Score
Композитор: Erich Wolfgang Korngold
Исполнитель: Warner Bros. Studio Orchestra, conducted by Lionel Newman
Оригинальная запись: 1961
Год выпуска диска: 1991
Страна-производитель диска: Великобритания
Издатель (лейбл): Stanyan Records
Номер по каталогу: STZ 117
Аудиокодек: APE (*.ape)
Тип рипа: image+.cue
Битрейт аудио: lossless
Продолжительность: 41:16
Источник: emule
Наличие сканов в содержимом раздачи: да

Треклист:
01. Main Title ("King's Row", 1942) (01:35)
02. The Children ("King's Row", 1942) (02:25)
03. Randy And Drake ("King's Row", 1942) (03:05)
04. Grandmother ("King's Row", 1942) (02:25)
05. Anthony Is Born ("Anthony Adverse", 1936) (02:47)
06. Love Scene ("Anthony Adverse", 1936) (02:19)
07. Anthony Comes Home ("Anthony Adverse", 1936) (01:39)
08. Main Title and Essex's Victory March ("The Private Lives Of Elizabeth And Essex", 1939) (01:32)
09. Love Scene and Finale ("The Private Lives Of Elizabeth And Essex", 1939) (02:34)
10. Main Title ("The Sea Hawk", 1940) (02:12)
11. The Reunion ("The Sea Hawk", 1940) (04:11)
12. The Boys Go To Play ("The Prince And The Pauper", 1937) (00:58)
13. Main Title ("The Constant Nymph", 1943) (01:28)
14. Farewell ("The Constant Nymph", 1943) (01:39)
15. March Of The Merry Men and Battle ("The Adventures Of Robin Hood", 1938) (03:47)
16. Robin And Maid Marian ("The Adventures Of Robin Hood", 1938) (04:13)
17. Epilogue ("The Adventures Of Robin Hood", 1938) (01:19)
 
EAC extraction logfile from 19. August 2006, 21:10 for CDErich Wolfgang Korngold / The Film Music

Used drive : PLEXTOR DVDR PX-760A Adapter: 2 ID: 0Read mode : Secure with NO C2, accurate stream, disable cacheRead offset correction : 30Overread into Lead-In and Lead-Out : No

Used output format : Internal WAV Routines 44.100 Hz; 16 Bit; Stereo

Other options : Fill up missing offset samples with silence : Yes Delete leading and trailing silent blocks : No Installed external ASPI interface

Range status and errorsSelected range Filename E:\HQShare.Net Releases\Erich Wolfgang Korngold - The Film Music of Erich Wolfgang Korngold\Listen\Erich Wolfgang Korngold - The Film Music.wav

Peak level 100.0 % Range quality 99.9 % CRC E242EB62 Copy OK

No errors occured

End of status report
 
REM DATE 2005REM GENRE SoundtrackREM DISCID CB09AC11REM COMMENT "ExactAudioCopy v0.95b3"PERFORMER "Erich Wolfgang Korngold"TITLE "The Film Music"FILE "Erich Wolfgang Korngold - The Film Music.ape" WAVE TRACK 01 AUDIO TITLE "Main title (King's Row)" PERFORMER "Erich Wolfgang Korngold" INDEX 01 00:00:00 TRACK 02 AUDIO TITLE "The Children (King's Row)" PERFORMER "Erich Wolfgang Korngold" INDEX 00 01:36:07 INDEX 01 01:40:32 TRACK 03 AUDIO TITLE "Randy and Drake (King's Row)" PERFORMER "Erich Wolfgang Korngold" INDEX 00 04:05:67 INDEX 01 04:09:57 TRACK 04 AUDIO TITLE "Grandmother (King's Row)" PERFORMER "Erich Wolfgang Korngold" INDEX 00 07:14:05 INDEX 01 07:18:17 TRACK 05 AUDIO TITLE "Anthony Is Born (Anthony Adverse)" PERFORMER "Erich Wolfgang Korngold" INDEX 00 09:42:72 INDEX 01 09:46:20 TRACK 06 AUDIO TITLE "Love Scene (Anthony Adverse)" PERFORMER "Erich Wolfgang Korngold" INDEX 00 12:34:32 INDEX 01 12:37:50 TRACK 07 AUDIO TITLE "Anthony Comes Home (Anthony Adverse)" PERFORMER "Erich Wolfgang Korngold" INDEX 00 14:56:07 INDEX 01 14:59:65 TRACK 08 AUDIO TITLE "Main Title and Essex's Victory March (The Private Lives Of Elizabeth And Essex)" PERFORMER "Erich Wolfgang Korngold" INDEX 00 16:40:02 INDEX 01 16:42:62 TRACK 09 AUDIO TITLE "Love Scene and Finale (The Private Lives Of Elizabeth And Essex)" PERFORMER "Erich Wolfgang Korngold" INDEX 00 18:16:12 INDEX 01 18:19:02 TRACK 10 AUDIO TITLE "Main Title (The Sea Hawk)" PERFORMER "Erich Wolfgang Korngold" INDEX 00 20:53:65 INDEX 01 20:56:00 TRACK 11 AUDIO TITLE "The Reunion (The Sea Hawk)" PERFORMER "Erich Wolfgang Korngold" INDEX 00 23:09:47 INDEX 01 23:12:72 TRACK 12 AUDIO TITLE "The Boys Go To Play (The Prince And The Pauper)" PERFORMER "Erich Wolfgang Korngold" INDEX 00 27:24:45 INDEX 01 27:28:52 TRACK 13 AUDIO TITLE "Main Title (The Constant Nymph)" PERFORMER "Erich Wolfgang Korngold" INDEX 00 28:27:12 INDEX 01 28:30:17 TRACK 14 AUDIO TITLE "Farewell (The Constant Nymph)" PERFORMER "Erich Wolfgang Korngold" INDEX 00 29:59:47 INDEX 01 30:01:67 TRACK 15 AUDIO TITLE "March Of The Merry Men and Battle (The Adventures Of Robin Hood)" PERFORMER "Erich Wolfgang Korngold" INDEX 00 31:42:12 INDEX 01 31:45:00 TRACK 16 AUDIO TITLE "Robin And Maid Marian (The Adventures Of Robin Hood)" PERFORMER "Erich Wolfgang Korngold" INDEX 00 35:32:50 INDEX 01 35:37:27 TRACK 17 AUDIO TITLE "Epilog (The Adventures Of Robin Hood)" PERFORMER "Erich Wolfgang Korngold" INDEX 00 39:51:05 INDEX 01 39:56:02
 
Started at: суббота, 10. 12. 2011. - 5:36.56

1 file found

1 -===- C:\!_TORRENT\Erich Wolfgang Korngold - The Film Music (1991) [APE]\Erich Wolfgang Korngold - The Film Music.ape Extracted successfully Conclusion: This track looks like CDDA with probability 100% Tempfile successfully deleted.

Finished at: суббота, 10. 12. 2011. - 5:41.31 (operation time: 0:04.35)


Трекер:  [ 02-Фев-2012 21:41 ]

  

Скачать .torrent

Размер .torrent файла 18 KB


Размер: 222 MB
Хэш (hash) релиза: a30026f6265bb557d01f576e3324fe462adb61c2

Торренты, похожие на The Film Music of Erich Wolfgang Korngold скачать торрент

Форум Название Автор Размер S L Добавлен
Саундтреки к фильмам и мультфильмам (mp3) ·· (Score) The Film Music of Erich Wolfgang Korngold (Warner Bros. Studio Orchestra) - 1991, MP3, 320 kbps Galfimbul 105182300100 MB 0 0 1323510070

12:41

10-Дек-11

bot

Топик был перенесен в форум Саундтреки к фильмам и мультфильмам (lossless)

Перенес Galfimbul

Хотите добавить комментарий к записи скачать торрент The Film Music of Erich Wolfgang Korngold

!Обратная связь