Скачать через торрент музыку Девять ярдов The Whole Nine Yards бесплатно без регистрации torrent

Если у вас наблюдаются проблемы со скриншотами, переходом по ссылками, скачиванием торрентов - проблемы в блокировщике рекламы AdBlock. #хорошегоДня!


Статистика раздачи
Размер:  360 MB   |    Зарегистрирован:  5 лет 8 месяцев   |    .torrent скачан:  31 раз   |   
Раздают:  1  
   
Загрузка...
 
Автор Сообщение

uzi2009

avatar uzi2009


Девять ярдов | The Whole Nine Yards



Жанр: Score
Композитор: Randy Edelman
Год выпуска диска: 2000
Страна-производитель диска: USA
Издатель (лейбл): Varese Sarabande
Номер по каталогу: VSD 302 066 114 2
Аудио кодек: FLAC (*.flac)
Тип рипа: tracks+.cue
Битрейт аудио: lossless
Продолжительность: 00:54:52
Наличие сканов в содержимом раздачи: да
1. Jimmy The Tulip (01:11)
2. I Don't Worry About A Thing (02:15)
Performed by Mose Allison
3. A New Neighbor (01:20)
4. Moanin' (07:57)
Performed by Charles Mingus
5. Did You Say Divorce? (01:03)
6. Tenth Avenue Tango (04:02)
Performed by Bruce Willis
7. The Gogolak Mansion (01:08)
8. Everytime I Hear That Mellow Saxophone (01:59)
Performed by The Up Top Orchestra
9. Cynthia With A "C" (01:00)
10. Autumn Leaves (Les Feuilles Mortes) (03:45)
Performed by The Charlie Biddle Trio featuring Stephanie Biddle
11. Yanni On A String (01:06)
12. Frankie Figs (01:42)
13. The Gang Arrives In Montreal (01:41)
14. A Swingin' Barbecue (01:20)
15. Oz Gets A Surprise (01:55)
16. Say I Do (01:22)
17. I Think We'll Be Fine (01:12)
18. Phone Tag (01:56)
19. Frantic (01:53)
20. Sensuous Lady (01:52)
21. Scheming On The Boat (01:17)
22. Taking A Stand (01:07)
23. Discovering The Evidence (01:04)
24. The Games' Afoot (01:49)
25. Sophie Cons Jimmy (00:50)
26. The Scientific Method (01:53)
27. The Tulip Reprise (01:38)
28. They All Laughed (03:35)
Performed by The Charlie Biddle Trio featuring Stephanie Biddle
 
Exact Audio Copy V1.0 beta 3 from 29. August 2011

EAC extraction logfile from 12. December 2011, 11:45

Randy Edelman / The Whole Nine Yards

Used drive : PLEXTOR DVDR PX-L890SA Adapter: 1 ID: 1

Read mode : SecureUtilize accurate stream : YesDefeat audio cache : YesMake use of C2 pointers : No

Read offset correction : 6Overread into Lead-In and Lead-Out : NoFill up missing offset samples with silence : YesDelete leading and trailing silent blocks : NoNull samples used in CRC calculations : YesUsed interface : Installed external ASPI interfaceGap handling : Appended to previous track

Used output format : User Defined EncoderSelected bitrate : 1024 kBit/sQuality : HighAdd ID3 tag : NoCommand line compressor : C:\Program Files\Exact Audio Copy\Flac\flac.exeAdditional command line options : -V -8 -T "Genre=%genre%" -T "Artist=%artist%" -T "Title=%title%" -T "Album=%albumtitle%" -T "Date=%year%" -T "Tracknumber=%tracknr%" -T "Comment=%comment%" %source%

TOC of the extracted CD

Track | Start | Length | Start sector | End sector --------------------------------------------------------- 1 | 0:00.00 | 1:15.01 | 0 | 5625 2 | 1:15.01 | 2:19.49 | 5626 | 16099 3 | 3:34.50 | 1:24.35 | 16100 | 22434 4 | 4:59.10 | 8:01.36 | 22435 | 58545 5 | 13:00.46 | 1:06.57 | 58546 | 63552 6 | 14:07.28 | 4:05.54 | 63553 | 81981 7 | 18:13.07 | 1:12.22 | 81982 | 87403 8 | 19:25.29 | 2:02.74 | 87404 | 96627 9 | 21:28.28 | 1:03.69 | 96628 | 101421 10 | 22:32.22 | 3:48.66 | 101422 | 118587 11 | 26:21.13 | 1:10.38 | 118588 | 123875 12 | 27:31.51 | 1:46.24 | 123876 | 131849 13 | 29:18.00 | 1:45.39 | 131850 | 139763 14 | 31:03.39 | 1:24.34 | 139764 | 146097 15 | 32:27.73 | 1:59.10 | 146098 | 155032 16 | 34:27.08 | 1:26.33 | 155033 | 161515 17 | 35:53.41 | 1:16.17 | 161516 | 167232 18 | 37:09.58 | 2:00.31 | 167233 | 176263 19 | 39:10.14 | 1:57.27 | 176264 | 185065 20 | 41:07.41 | 1:56.47 | 185066 | 193812 21 | 43:04.13 | 1:21.19 | 193813 | 199906 22 | 44:25.32 | 1:10.57 | 199907 | 205213 23 | 45:36.14 | 1:08.49 | 205214 | 210362 24 | 46:44.63 | 1:52.61 | 210363 | 218823 25 | 48:37.49 | 0:54.50 | 218824 | 222923 26 | 49:32.24 | 1:57.03 | 222924 | 231701 27 | 51:29.27 | 1:41.72 | 231702 | 239348 28 | 53:11.24 | 3:34.62 | 239349 | 255460

Track 1

Filename F:\torrent\Whole Nine Yards_Randy Edelman\score\01 Jimmy The Tulip.wav

Pre-gap length 0:00:02.00

Peak level 86.2 % Extraction speed 2.7 X Track quality 99.8 % Test CRC 9342D289 Copy CRC 9342D289 Accurately ripped (confidence 2) [FC71C626] (AR v1) Copy OK

Track 2

Filename F:\torrent\Whole Nine Yards_Randy Edelman\score\02 I Don't Worry About A Thing.wav

Pre-gap length 0:00:04.00

Peak level 94.6 % Extraction speed 4.6 X Track quality 100.0 % Test CRC F1201DDC Copy CRC F1201DDC Accurately ripped (confidence 2) [7ED854F9] (AR v1) Copy OK

Track 3

Filename F:\torrent\Whole Nine Yards_Randy Edelman\score\03 A New Neighbor.wav

Pre-gap length 0:00:04.00

Peak level 71.5 % Extraction speed 4.3 X Track quality 100.0 % Test CRC 6C61AA93 Copy CRC 6C61AA93 Accurately ripped (confidence 2) [44C7C2D6] (AR v1) Copy OK

Track 4

Filename F:\torrent\Whole Nine Yards_Randy Edelman\score\04 Moanin'.wav

Pre-gap length 0:00:04.00

Peak level 96.1 % Extraction speed 6.4 X Track quality 100.0 % Test CRC D788F306 Copy CRC D788F306 Accurately ripped (confidence 2) [5284DB10] (AR v1) Copy OK

Track 5

Filename F:\torrent\Whole Nine Yards_Randy Edelman\score\05 Did You Say Divorce.wav

Pre-gap length 0:00:04.00

Peak level 100.0 % Extraction speed 3.5 X Track quality 99.8 % Test CRC E7B5C560 Copy CRC E7B5C560 Accurately ripped (confidence 2) [E5EF2927] (AR v1) Copy OK

Track 6

Filename F:\torrent\Whole Nine Yards_Randy Edelman\score\06 Tenth Avenue Tango.wav

Pre-gap length 0:00:04.00

Peak level 98.4 % Extraction speed 6.8 X Track quality 100.0 % Test CRC 020EA047 Copy CRC 020EA047 Accurately ripped (confidence 2) [6A3BB3D3] (AR v1) Copy OK

Track 7

Filename F:\torrent\Whole Nine Yards_Randy Edelman\score\07 The Gogolak Mansion.wav

Pre-gap length 0:00:04.00

Peak level 81.8 % Extraction speed 5.2 X Track quality 100.0 % Test CRC D7CA76A2 Copy CRC D7CA76A2 Accurately ripped (confidence 2) [CF2D3A3A] (AR v1) Copy OK

Track 8

Filename F:\torrent\Whole Nine Yards_Randy Edelman\score\08 Every Time I Hear That Mellow Saxophone.wav

Pre-gap length 0:00:04.00

Peak level 97.2 % Extraction speed 6.3 X Track quality 100.0 % Test CRC 2F8AF2D9 Copy CRC 2F8AF2D9 Accurately ripped (confidence 2) [FE973CDD] (AR v1) Copy OK

Track 9

Filename F:\torrent\Whole Nine Yards_Randy Edelman\score\09 Cynthia With A ''C''.wav

Pre-gap length 0:00:04.00

Peak level 74.0 % Extraction speed 5.2 X Track quality 100.0 % Test CRC 2F8243CE Copy CRC 2F8243CE Accurately ripped (confidence 2) [775A2F05] (AR v1) Copy OK

Track 10

Filename F:\torrent\Whole Nine Yards_Randy Edelman\score\10 Autumn Leaves [Les Feulles Mortes].wav

Pre-gap length 0:00:04.00

Peak level 94.0 % Extraction speed 7.5 X Track quality 100.0 % Test CRC A03FC057 Copy CRC A03FC057 Accurately ripped (confidence 2) [8BE36E36] (AR v1) Copy OK

Track 11

Filename F:\torrent\Whole Nine Yards_Randy Edelman\score\11 Yanni On A String.wav

Pre-gap length 0:00:04.00

Peak level 75.8 % Extraction speed 5.8 X Track quality 100.0 % Test CRC 0B062670 Copy CRC 0B062670 Accurately ripped (confidence 2) [BB23B3BF] (AR v1) Copy OK

Track 12

Filename F:\torrent\Whole Nine Yards_Randy Edelman\score\12 Frankie Figs.wav

Pre-gap length 0:00:04.00

Peak level 92.3 % Extraction speed 6.7 X Track quality 100.0 % Test CRC 8EE04CFF Copy CRC 8EE04CFF Accurately ripped (confidence 2) [14885228] (AR v1) Copy OK

Track 13

Filename F:\torrent\Whole Nine Yards_Randy Edelman\score\13 The Gang Arrives In Montreal.wav

Pre-gap length 0:00:04.00

Peak level 72.5 % Extraction speed 6.9 X Track quality 100.0 % Test CRC B82CA8AC Copy CRC B82CA8AC Accurately ripped (confidence 2) [3739B449] (AR v1) Copy OK

Track 14

Filename F:\torrent\Whole Nine Yards_Randy Edelman\score\14 A Swingin' Barbecue.wav

Pre-gap length 0:00:04.00

Peak level 76.7 % Extraction speed 6.5 X Track quality 100.0 % Test CRC 147F3BFF Copy CRC 147F3BFF Accurately ripped (confidence 2) [D8E4E4B3] (AR v1) Copy OK

Track 15

Filename F:\torrent\Whole Nine Yards_Randy Edelman\score\15 Oz Gets A Surprise.wav

Pre-gap length 0:00:04.00

Peak level 79.3 % Extraction speed 7.3 X Track quality 100.0 % Test CRC 5C233EC3 Copy CRC 5C233EC3 Accurately ripped (confidence 2) [F9E02B3C] (AR v1) Copy OK

Track 16

Filename F:\torrent\Whole Nine Yards_Randy Edelman\score\16 Say I Do.wav

Pre-gap length 0:00:04.00

Peak level 87.7 % Extraction speed 6.8 X Track quality 100.0 % Test CRC C7608CD9 Copy CRC C7608CD9 Accurately ripped (confidence 2) [70A2A3CB] (AR v1) Copy OK

Track 17

Filename F:\torrent\Whole Nine Yards_Randy Edelman\score\17 I Think We'll Be Fine.wav

Pre-gap length 0:00:04.00

Peak level 93.6 % Extraction speed 6.6 X Track quality 100.0 % Test CRC 85BB78AD Copy CRC 85BB78AD Accurately ripped (confidence 2) [90F0D55E] (AR v1) Copy OK

Track 18

Filename F:\torrent\Whole Nine Yards_Randy Edelman\score\18 Phone Tag.wav

Pre-gap length 0:00:04.00

Peak level 70.6 % Extraction speed 7.5 X Track quality 100.0 % Test CRC F06967A1 Copy CRC F06967A1 Accurately ripped (confidence 2) [4663B7E7] (AR v1) Copy OK

Track 19

Filename F:\torrent\Whole Nine Yards_Randy Edelman\score\19 Frantic.wav

Pre-gap length 0:00:04.00

Peak level 95.6 % Extraction speed 7.7 X Track quality 100.0 % Test CRC 3A6D8AAA Copy CRC 3A6D8AAA Accurately ripped (confidence 2) [FDB9A166] (AR v1) Copy OK

Track 20

Filename F:\torrent\Whole Nine Yards_Randy Edelman\score\20 Sensuous Lady.wav

Pre-gap length 0:00:04.00

Peak level 78.4 % Extraction speed 7.9 X Track quality 100.0 % Test CRC D263D082 Copy CRC D263D082 Accurately ripped (confidence 2) [216E5082] (AR v1) Copy OK

Track 21

Filename F:\torrent\Whole Nine Yards_Randy Edelman\score\21 Scheming On The Boat.wav

Pre-gap length 0:00:04.00

Peak level 69.0 % Extraction speed 7.1 X Track quality 100.0 % Test CRC 1CE28759 Copy CRC 1CE28759 Accurately ripped (confidence 2) [18C3E5FF] (AR v1) Copy OK

Track 22

Filename F:\torrent\Whole Nine Yards_Randy Edelman\score\22 Taking A Stand.wav

Pre-gap length 0:00:04.00

Peak level 87.9 % Extraction speed 6.9 X Track quality 100.0 % Test CRC F7C82166 Copy CRC F7C82166 Accurately ripped (confidence 2) [07109CF4] (AR v1) Copy OK

Track 23

Filename F:\torrent\Whole Nine Yards_Randy Edelman\score\23 Discovering The Evidence.wav

Pre-gap length 0:00:04.00

Peak level 90.2 % Extraction speed 6.9 X Track quality 100.0 % Test CRC 584B7C0A Copy CRC 584B7C0A Accurately ripped (confidence 2) [DB52547E] (AR v1) Copy OK

Track 24

Filename F:\torrent\Whole Nine Yards_Randy Edelman\score\24 The Games' Afoot.wav

Pre-gap length 0:00:04.00

Peak level 86.5 % Extraction speed 8.2 X Track quality 100.0 % Test CRC 67E230D4 Copy CRC 67E230D4 Accurately ripped (confidence 2) [8CEB95F8] (AR v1) Copy OK

Track 25

Filename F:\torrent\Whole Nine Yards_Randy Edelman\score\25 Sophie Cons Jimmy.wav

Pre-gap length 0:00:04.00

Peak level 84.1 % Extraction speed 6.4 X Track quality 100.0 % Test CRC 5D829C7E Copy CRC 5D829C7E Accurately ripped (confidence 2) [B9BE59EC] (AR v1) Copy OK

Track 26

Filename F:\torrent\Whole Nine Yards_Randy Edelman\score\26 The Scientific Method.wav

Pre-gap length 0:00:04.00

Peak level 62.0 % Extraction speed 8.3 X Track quality 100.0 % Test CRC 3AF3671B Copy CRC 3AF3671B Accurately ripped (confidence 2) [DDB840F5] (AR v1) Copy OK

Track 27

Filename F:\torrent\Whole Nine Yards_Randy Edelman\score\27 The Tulip Reprise.wav

Pre-gap length 0:00:04.00

Peak level 85.1 % Extraction speed 8.1 X Track quality 100.0 % Test CRC F3D0E4F2 Copy CRC F3D0E4F2 Accurately ripped (confidence 2) [4FAFCB87] (AR v1) Copy OK

Track 28

Filename F:\torrent\Whole Nine Yards_Randy Edelman\score\28 They All Laughed.wav

Pre-gap length 0:00:04.00

Peak level 89.2 % Extraction speed 8.3 X Track quality 99.9 % Test CRC 7E7B1B63 Copy CRC 7E7B1B63 Accurately ripped (confidence 2) [D6D8B40A] (AR v1) Copy OK

All tracks accurately ripped

No errors occurred

End of status report

==== Log checksum 3AE7AE0865B38F7ABA9BDE6B621C342BAA72DDF120724FC56B02C8D6AEC061EB ====
 
REM GENRE SoundtrackREM DATE 2000REM DISCID B10D4E1CREM COMMENT "ExactAudioCopy v1.0b3"PERFORMER "Randy Edelman"TITLE "The Whole Nine Yards"FILE "01 Jimmy The Tulip.wav" WAVE TRACK 01 AUDIO TITLE "Jimmy The Tulip" PERFORMER "Randy Edelman" INDEX 01 00:00:00 TRACK 02 AUDIO TITLE "I Don't Worry About A Thing" PERFORMER "Randy Edelman" INDEX 00 01:11:01FILE "02 I Don't Worry About A Thing.wav" WAVE INDEX 01 00:00:00 TRACK 03 AUDIO TITLE "A New Neighbor" PERFORMER "Randy Edelman" INDEX 00 02:15:49FILE "03 A New Neighbor.wav" WAVE INDEX 01 00:00:00 TRACK 04 AUDIO TITLE "Moanin'" PERFORMER "Randy Edelman" INDEX 00 01:20:35FILE "04 Moanin'.wav" WAVE INDEX 01 00:00:00 TRACK 05 AUDIO TITLE "Did You Say Divorce?" PERFORMER "Randy Edelman" INDEX 00 07:57:36FILE "05 Did You Say Divorce.wav" WAVE INDEX 01 00:00:00 TRACK 06 AUDIO TITLE "Tenth Avenue Tango" PERFORMER "Randy Edelman" INDEX 00 01:02:57FILE "06 Tenth Avenue Tango.wav" WAVE INDEX 01 00:00:00 TRACK 07 AUDIO TITLE "The Gogolak Mansion" PERFORMER "Randy Edelman" INDEX 00 04:01:54FILE "07 The Gogolak Mansion.wav" WAVE INDEX 01 00:00:00 TRACK 08 AUDIO TITLE "Every Time I Hear That Mellow Saxophone" PERFORMER "Randy Edelman" INDEX 00 01:08:22FILE "08 Every Time I Hear That Mellow Saxophone.wav" WAVE INDEX 01 00:00:00 TRACK 09 AUDIO TITLE "Cynthia With A 'C'" PERFORMER "Randy Edelman" INDEX 00 01:58:74FILE "09 Cynthia With A ''C''.wav" WAVE INDEX 01 00:00:00 TRACK 10 AUDIO TITLE "Autumn Leaves [Les Feulles Mortes]" PERFORMER "Randy Edelman" INDEX 00 00:59:69FILE "10 Autumn Leaves [Les Feulles Mortes].wav" WAVE INDEX 01 00:00:00 TRACK 11 AUDIO TITLE "Yanni On A String" PERFORMER "Randy Edelman" INDEX 00 03:44:66FILE "11 Yanni On A String.wav" WAVE INDEX 01 00:00:00 TRACK 12 AUDIO TITLE "Frankie Figs" PERFORMER "Randy Edelman" INDEX 00 01:06:38FILE "12 Frankie Figs.wav" WAVE INDEX 01 00:00:00 TRACK 13 AUDIO TITLE "The Gang Arrives In Montreal" PERFORMER "Randy Edelman" INDEX 00 01:42:24FILE "13 The Gang Arrives In Montreal.wav" WAVE INDEX 01 00:00:00 TRACK 14 AUDIO TITLE "A Swingin' Barbecue" PERFORMER "Randy Edelman" INDEX 00 01:41:39FILE "14 A Swingin' Barbecue.wav" WAVE INDEX 01 00:00:00 TRACK 15 AUDIO TITLE "Oz Gets A Surprise" PERFORMER "Randy Edelman" INDEX 00 01:20:34FILE "15 Oz Gets A Surprise.wav" WAVE INDEX 01 00:00:00 TRACK 16 AUDIO TITLE "Say I Do" PERFORMER "Randy Edelman" INDEX 00 01:55:10FILE "16 Say I Do.wav" WAVE INDEX 01 00:00:00 TRACK 17 AUDIO TITLE "I Think We'll Be Fine" PERFORMER "Randy Edelman" INDEX 00 01:22:33FILE "17 I Think We'll Be Fine.wav" WAVE INDEX 01 00:00:00 TRACK 18 AUDIO TITLE "Phone Tag" PERFORMER "Randy Edelman" INDEX 00 01:12:17FILE "18 Phone Tag.wav" WAVE INDEX 01 00:00:00 TRACK 19 AUDIO TITLE "Frantic" PERFORMER "Randy Edelman" INDEX 00 01:56:31FILE "19 Frantic.wav" WAVE INDEX 01 00:00:00 TRACK 20 AUDIO TITLE "Sensuous Lady" PERFORMER "Randy Edelman" INDEX 00 01:53:27FILE "20 Sensuous Lady.wav" WAVE INDEX 01 00:00:00 TRACK 21 AUDIO TITLE "Scheming On The Boat" PERFORMER "Randy Edelman" INDEX 00 01:52:47FILE "21 Scheming On The Boat.wav" WAVE INDEX 01 00:00:00 TRACK 22 AUDIO TITLE "Taking A Stand" PERFORMER "Randy Edelman" INDEX 00 01:17:19FILE "22 Taking A Stand.wav" WAVE INDEX 01 00:00:00 TRACK 23 AUDIO TITLE "Discovering The Evidence" PERFORMER "Randy Edelman" INDEX 00 01:06:57FILE "23 Discovering The Evidence.wav" WAVE INDEX 01 00:00:00 TRACK 24 AUDIO TITLE "The Games' Afoot" PERFORMER "Randy Edelman" INDEX 00 01:04:49FILE "24 The Games' Afoot.wav" WAVE INDEX 01 00:00:00 TRACK 25 AUDIO TITLE "Sophie Cons Jimmy" PERFORMER "Randy Edelman" INDEX 00 01:48:61FILE "25 Sophie Cons Jimmy.wav" WAVE INDEX 01 00:00:00 TRACK 26 AUDIO TITLE "The Scientific Method" PERFORMER "Randy Edelman" INDEX 00 00:50:50FILE "26 The Scientific Method.wav" WAVE INDEX 01 00:00:00 TRACK 27 AUDIO TITLE "The Tulip Reprise" PERFORMER "Randy Edelman" INDEX 00 01:53:03FILE "27 The Tulip Reprise.wav" WAVE INDEX 01 00:00:00 TRACK 28 AUDIO TITLE "They All Laughed" PERFORMER "Randy Edelman" INDEX 00 01:37:72FILE "28 They All Laughed.wav" WAVE INDEX 01 00:00:00


Трекер:  [ 19-Янв-2012 22:08 ]

  

Скачать .torrent

Размер .torrent файла 16 KB


Размер: 360 MB
Хэш (hash) релиза: 52e0527985240a9ab58ccf3a7511de20602044ae

bot

Топик был перенесен в форум Саундтреки к фильмам и мультфильмам (lossless)

Перенес uzi2009

Хотите добавить комментарий к записи скачать торрент Девять ярдов The Whole Nine Yards

!Обратная связь