Скачать через торрент музыку Шерлок Холмс: Игра теней Sherlock Holmes: A Game of Shadows бесплатно без регистрации torrent

Если у вас наблюдаются проблемы со скриншотами, переходом по ссылками, скачиванием торрентов - проблемы в блокировщике рекламы AdBlock. #хорошегоДня!


Статистика раздачи
Размер:  357 MB   |    Зарегистрирован:  5 лет 7 месяцев   |    .torrent скачан:  60 раз   |   
Раздают:  1  
   
Загрузка...
 
Автор Сообщение

uzi2009

avatar uzi2009


Шерлок Холмс: Игра теней / Sherlock Holmes: A Game of Shadows



Жанр: Score
Композитор: Hans Zimmer
Год выпуска диска: 2011
Страна-производитель диска: Germany (IFPI LP73, arvato digital services)
Издатель (лейбл): Sony Classical
Номер по каталогу: 88697978902
EAN/UPC: 886979789029
Аудиокодек: FLAC (*.flac)
Тип рипа: tracks+.cue
Битрейт аудио: lossless
Продолжительность: 57:27
Наличие сканов в содержимом раздачи: да (CD и обложки, 600dpi)

01. I See Everything [0:00:39.01]
02. That Is My Curse (Shadows - Part 1) [0:01:51.73]
03. Tick Tock (Shadows - Part 2) [0:08:13.00]
04. Chess (Shadows - Part 3) [0:07:34.20]
05. It's So Overt It's Covert [0:03:19.40]
06. Romanian Wind [0:01:56.11]
07. Did You Kill My Wife? [0:02:42.47]
08. He's All Me Me Me [0:01:58.18]
09. The Mycroft Suite [0:01:41.60]
10. Nicolaus Esterhazy Sinfonia / Hungarian Radio Chorus / To The Opera! [0:04:03.64]
11. Movie Screen Orchestra / Two Mules For Sister Sara [0:02:34.05]
12. Ian Bostridge / Julius Drake / Die Forelle [0:03:23.44]
13. Zu Viele Fuechse Fuer Euch Haensel [0:01:47.22]
14. The Red Book [0:04:00.43]
15. Moral Insanity [0:01:31.16]
16. Memories of Sherlock [0:02:11.41]
17. The End? [0:02:26.14]
18. Romani Holiday (Antonius Remix) [0:05:39.45]

 
Exact Audio Copy V1.0 beta 3 from 29. August 2011

EAC extraction logfile from 15. December 2011, 15:05

Hans Zimmer / Sherlock Holmes - A Game Of Shadows

Used drive : TSSTcorpCD/DVDW SH-S182M Adapter: 0 ID: 0

Read mode : SecureUtilize accurate stream : YesDefeat audio cache : YesMake use of C2 pointers : No

Read offset correction : 6Overread into Lead-In and Lead-Out : NoFill up missing offset samples with silence : YesDelete leading and trailing silent blocks : NoNull samples used in CRC calculations : YesUsed interface : Native Win32 interface for Win NT & 2000Gap handling : Appended to previous track

Used output format : User Defined EncoderSelected bitrate : 1024 kBit/sQuality : HighAdd ID3 tag : NoCommand line compressor : C:\Program Files\Exact Audio Copy\Flac\flac.exeAdditional command line options : -8 -V -T "ARTIST=%artist%" -T "TITLE=%title%" -T "ALBUM=%albumtitle%" -T "DATE=%year%" -T "TRACKNUMBER=%tracknr%" -T "GENRE=%genre%" -T "PERFORMER=%albuminterpret%" -T "COMPOSER=%composer%" %source% -o %dest%

TOC of the extracted CD

Track | Start | Length | Start sector | End sector --------------------------------------------------------- 1 | 0:00.00 | 0:39.01 | 0 | 2925 2 | 0:39.01 | 1:51.73 | 2926 | 11323 3 | 2:30.74 | 8:13.00 | 11324 | 48298 4 | 10:43.74 | 7:34.20 | 48299 | 82368 5 | 18:18.19 | 3:19.40 | 82369 | 97333 6 | 21:37.59 | 1:56.11 | 97334 | 106044 7 | 23:33.70 | 2:42.47 | 106045 | 118241 8 | 26:16.42 | 1:58.18 | 118242 | 127109 9 | 28:14.60 | 1:41.60 | 127110 | 134744 10 | 29:56.45 | 4:03.64 | 134745 | 153033 11 | 34:00.34 | 2:34.05 | 153034 | 164588 12 | 36:34.39 | 3:23.44 | 164589 | 179857 13 | 39:58.08 | 1:47.22 | 179858 | 187904 14 | 41:45.30 | 4:00.43 | 187905 | 205947 15 | 45:45.73 | 1:31.16 | 205948 | 212788 16 | 47:17.14 | 2:11.41 | 212789 | 222654 17 | 49:28.55 | 2:26.14 | 222655 | 233618 18 | 51:54.69 | 5:39.45 | 233619 | 259088 19 | 60:06.39 | 2:22.71 | 270489 | 281209

Track 1

Filename C:\Music\01 - Hans Zimmer - I See Everything.wav

Pre-gap length 0:00:02.00

Peak level 37.0 % Extraction speed 2.7 X Track quality 100.0 % Test CRC 67FFF9F6 Copy CRC 67FFF9F6 Track not present in AccurateRip database Copy OK

Track 2

Filename C:\Music\02 - Hans Zimmer - That Is My Curse (Shadows - Part 1).wav

Peak level 99.7 % Extraction speed 4.1 X Track quality 100.0 % Test CRC 7AA2CB42 Copy CRC 7AA2CB42 Track not present in AccurateRip database Copy OK

Track 3

Filename C:\Music\03 - Hans Zimmer - Tick Tock (Shadows - Part 2).wav

Peak level 99.7 % Extraction speed 5.1 X Track quality 99.9 % Test CRC 104100D8 Copy CRC 104100D8 Track not present in AccurateRip database Copy OK

Track 4

Filename C:\Music\04 - Hans Zimmer - Chess (Shadows - Part 3).wav

Peak level 99.7 % Extraction speed 6.3 X Track quality 100.0 % Test CRC 26451848 Copy CRC 26451848 Track not present in AccurateRip database Copy OK

Track 5

Filename C:\Music\05 - Hans Zimmer - It's So Overt It's Covert.wav

Peak level 99.7 % Extraction speed 5.3 X Track quality 99.9 % Test CRC 1086024D Copy CRC 1086024D Track not present in AccurateRip database Copy OK

Track 6

Filename C:\Music\06 - Hans Zimmer - Romanian Wind.wav

Peak level 99.7 % Extraction speed 5.6 X Track quality 100.0 % Test CRC 6F4174C2 Copy CRC 6F4174C2 Track not present in AccurateRip database Copy OK

Track 7

Filename C:\Music\07 - Hans Zimmer - Did You Kill My Wife.wav

Peak level 99.7 % Extraction speed 6.2 X Track quality 100.0 % Test CRC D7CEAC77 Copy CRC D7CEAC77 Track not present in AccurateRip database Copy OK

Track 8

Filename C:\Music\08 - Hans Zimmer - He's All Me Me Me.wav

Peak level 99.7 % Extraction speed 6.0 X Track quality 100.0 % Test CRC 760EDEEA Copy CRC 760EDEEA Track not present in AccurateRip database Copy OK

Track 9

Filename C:\Music\09 - Hans Zimmer - The Mycroft Suite.wav

Peak level 47.9 % Extraction speed 5.8 X Track quality 100.0 % Test CRC FB4A78DA Copy CRC FB4A78DA Track not present in AccurateRip database Copy OK

Track 10

Filename C:\Music\10 - Nicolaus Esterhazy Sinfonia , Hungarian Radio Chorus - To The Opera!.wav

Pre-gap length 0:00:00.20

Peak level 99.7 % Extraction speed 6.2 X Track quality 100.0 % Test CRC 12006D9A Copy CRC 12006D9A Track not present in AccurateRip database Copy OK

Track 11

Filename C:\Music\11 - Movie Screen Orchestra - Two Mules For Sister Sara.wav

Peak level 99.7 % Extraction speed 5.6 X Track quality 100.0 % Test CRC DA0DEB3C Copy CRC DA0DEB3C Track not present in AccurateRip database Copy OK

Track 12

Filename C:\Music\12 - Ian Bostridge , Julius Drake - Die Forelle.wav

Peak level 99.7 % Extraction speed 7.2 X Track quality 100.0 % Test CRC 7FC176D5 Copy CRC 7FC176D5 Track not present in AccurateRip database Copy OK

Track 13

Filename C:\Music\13 - Hans Zimmer - Zu Viele Fuechse Fuer Euch Haensel.wav

Peak level 99.7 % Extraction speed 6.1 X Track quality 100.0 % Test CRC 7442CB4F Copy CRC 7442CB4F Track not present in AccurateRip database Copy OK

Track 14

Filename C:\Music\14 - Hans Zimmer - The Red Book.wav

Peak level 99.7 % Extraction speed 6.9 X Track quality 100.0 % Test CRC 070B22AA Copy CRC 070B22AA Track not present in AccurateRip database Copy OK

Track 15

Filename C:\Music\15 - Hans Zimmer - Moral Insanity.wav

Peak level 99.7 % Extraction speed 6.5 X Track quality 100.0 % Test CRC F9F031E1 Copy CRC F9F031E1 Track not present in AccurateRip database Copy OK

Track 16

Filename C:\Music\16 - Hans Zimmer - Memories of Sherlock.wav

Peak level 22.7 % Extraction speed 7.2 X Track quality 100.0 % Test CRC 01F1302D Copy CRC 01F1302D Track not present in AccurateRip database Copy OK

Track 17

Filename C:\Music\17 - Hans Zimmer - The End.wav

Peak level 99.7 % Extraction speed 3.9 X Track quality 100.0 % Test CRC 15BFB89A Copy CRC 15BFB89A Track not present in AccurateRip database Copy OK

Track 18

Filename C:\Music\18 - Hans Zimmer - Romani Holiday (Antonius Remix).wav

Peak level 99.7 % Extraction speed 6.8 X Track quality 99.9 % Test CRC 1822BCE5 Copy CRC 1822BCE5 Track not present in AccurateRip database Copy OK

None of the tracks are present in the AccurateRip database

No errors occurred

End of status report

==== Log checksum 4455A79170C2095AAFD77428AED6478B6C8D518EC68FF514531CEDAF5463E500 ====
 
REM GENRE SoundtrackREM DATE 2011REM DISCID 0B0EA513REM COMMENT "ExactAudioCopy v1.0b3"PERFORMER "Hans Zimmer"TITLE "Sherlock Holmes - A Game Of Shadows"FILE "01 - Hans Zimmer - I See Everything.wav" WAVE TRACK 01 AUDIO TITLE "I See Everything" PERFORMER "Hans Zimmer" INDEX 01 00:00:00FILE "02 - Hans Zimmer - That Is My Curse (Shadows - Part 1).wav" WAVE TRACK 02 AUDIO TITLE "That Is My Curse (Shadows - Part 1)" PERFORMER "Hans Zimmer" INDEX 01 00:00:00FILE "03 - Hans Zimmer - Tick Tock (Shadows - Part 2).wav" WAVE TRACK 03 AUDIO TITLE "Tick Tock (Shadows - Part 2)" PERFORMER "Hans Zimmer" INDEX 01 00:00:00FILE "04 - Hans Zimmer - Chess (Shadows - Part 3).wav" WAVE TRACK 04 AUDIO TITLE "Chess (Shadows - Part 3)" PERFORMER "Hans Zimmer" INDEX 01 00:00:00FILE "05 - Hans Zimmer - It's So Overt It's Covert.wav" WAVE TRACK 05 AUDIO TITLE "It's So Overt It's Covert" PERFORMER "Hans Zimmer" INDEX 01 00:00:00FILE "06 - Hans Zimmer - Romanian Wind.wav" WAVE TRACK 06 AUDIO TITLE "Romanian Wind" PERFORMER "Hans Zimmer" INDEX 01 00:00:00FILE "07 - Hans Zimmer - Did You Kill My Wife.wav" WAVE TRACK 07 AUDIO TITLE "Did You Kill My Wife?" PERFORMER "Hans Zimmer" INDEX 01 00:00:00FILE "08 - Hans Zimmer - He's All Me Me Me.wav" WAVE TRACK 08 AUDIO TITLE "He's All Me Me Me" PERFORMER "Hans Zimmer" INDEX 01 00:00:00FILE "09 - Hans Zimmer - The Mycroft Suite.wav" WAVE TRACK 09 AUDIO TITLE "The Mycroft Suite" PERFORMER "Hans Zimmer" INDEX 01 00:00:00 TRACK 10 AUDIO TITLE "To The Opera!" PERFORMER "Nicolaus Esterhazy Sinfonia / Hungarian Radio Chorus" INDEX 00 01:41:40FILE "10 - Nicolaus Esterhazy Sinfonia , Hungarian Radio Chorus - To The Opera!.wav" WAVE INDEX 01 00:00:00FILE "11 - Movie Screen Orchestra - Two Mules For Sister Sara.wav" WAVE TRACK 11 AUDIO TITLE "Two Mules For Sister Sara" PERFORMER "Movie Screen Orchestra" INDEX 01 00:00:00FILE "12 - Ian Bostridge , Julius Drake - Die Forelle.wav" WAVE TRACK 12 AUDIO TITLE "Die Forelle" PERFORMER "Ian Bostridge / Julius Drake" INDEX 01 00:00:00FILE "13 - Hans Zimmer - Zu Viele Fuechse Fuer Euch Haensel.wav" WAVE TRACK 13 AUDIO TITLE "Zu Viele Fuechse Fuer Euch Haensel" PERFORMER "Hans Zimmer" INDEX 01 00:00:00FILE "14 - Hans Zimmer - The Red Book.wav" WAVE TRACK 14 AUDIO TITLE "The Red Book" PERFORMER "Hans Zimmer" INDEX 01 00:00:00FILE "15 - Hans Zimmer - Moral Insanity.wav" WAVE TRACK 15 AUDIO TITLE "Moral Insanity" PERFORMER "Hans Zimmer" INDEX 01 00:00:00FILE "16 - Hans Zimmer - Memories of Sherlock.wav" WAVE TRACK 16 AUDIO TITLE "Memories of Sherlock" PERFORMER "Hans Zimmer" INDEX 01 00:00:00FILE "17 - Hans Zimmer - The End.wav" WAVE TRACK 17 AUDIO TITLE "The End?" PERFORMER "Hans Zimmer" INDEX 01 00:00:00FILE "18 - Hans Zimmer - Romani Holiday (Antonius Remix).wav" WAVE TRACK 18 AUDIO TITLE "Romani Holiday (Antonius Remix)" PERFORMER "Hans Zimmer" INDEX 01 00:00:00 TRACK 19 MODEx/2xxx TITLE "Track19" PERFORMER "Hans Zimmer" INDEX 00 05:39:45


Трекер:  [ 19-Янв-2012 22:02 ]

  

Скачать .torrent

Размер .torrent файла 6 KB


Размер: 357 MB
Хэш (hash) релиза: 77794aeeff53398a8b1dfcc3975c500a6f625634

Торренты, похожие на Шерлок Холмс: Игра теней Sherlock Holmes: A Game of Shadows скачать торрент

Форум Название Автор Размер S L Добавлен
Саундтреки к фильмам и мультфильмам (mp3) ·· (Score) Шерлок Холмс: Игра теней / Sherlock Holmes: A Game of Shadows (by Hans Zimmer) - 2011, MP3, 320 kbps, 256 kbps Galfimbul 177038372169 MB 2 0 1323974544

21:42

15-Дек-11

bot

Топик был перенесен в форум Саундтреки к фильмам и мультфильмам (lossless)

Перенес uzi2009

Хотите добавить комментарий к записи скачать торрент Шерлок Холмс: Игра теней Sherlock Holmes: A Game of Shadows

!Обратная связь