Скачать через торрент музыку Модильяни Modigliani бесплатно без регистрации torrent

Если у вас наблюдаются проблемы со скриншотами, переходом по ссылками, скачиванием торрентов - проблемы в блокировщике рекламы AdBlock. #хорошегоДня!


Статистика раздачи
Размер:  285 MB   |    Зарегистрирован:  5 лет 8 месяцев   |    .torrent скачан:  52 раза   |   
Раздают:  1  
   
Загрузка...
 
Автор Сообщение

uzi2009

avatar uzi2009


Модильяни / Modigliani



Жанр: Score / Soundtrack
Композитор: Guy Farley
Год выпуска диска: 2004
Страна-производитель диска: England
Аудиокодек: FLAC (*.flac)
Тип рипа: tracks+.cue
Битрейт аудио: lossless
Продолжительность: 01:01:35

Треклист:
1. Modigliani Suite, Featuring Charles Siem On Solo Violin (3:28)
2. You Can't Change Destiny (1:34)
3. The Hat First (2:30)
4. Ancient Law (2:07)
5. Confession (1:57)
6. La Vie En Rose (Edith Piaf) (3:06)
7. One Condition (1:58)
8. Unfit Mother (1:35)
9. Opium Den (2:29)
10. You'll Die With Him (2:18)
11. To Renoir (2:18)
12. Opium Nightmare, Featuring Canto Haim Tvi Lieder (3:43)
13. Never Again (1:51)
14. Call The Police (4:19)
15. Ode To Innocence, Featuring Mojama (Sasha Lazard) (4:48)
16. The Competition (2:29)
17. Reach Beyond Belief (3:43)
18. Sleep Modi Sleep (3:13)
19. My Empty Life (3:09)
20. Wait For Me (1:20)
21. Jeanne's Death (1:34)
22. Angeli (Sasha Lazard) (5:55)
 
Exact Audio Copy V1.0 beta 1 from 15. November 2010

EAC extraction logfile from 1. June 2011, 17:35

Guy Farley / Modigliani

Used drive : TSSTcorpCDDVDW TS-L632H Adapter: 1 ID: 0

Read mode : SecureUtilize accurate stream : YesDefeat audio cache : NoMake use of C2 pointers : No

Read offset correction : 6Overread into Lead-In and Lead-Out : NoFill up missing offset samples with silence : YesDelete leading and trailing silent blocks : NoNull samples used in CRC calculations : YesUsed interface : Native Win32 interface for Win NT & 2000Gap handling : Appended to previous track

Used output format : User Defined EncoderSelected bitrate : 896 kBit/sQuality : HighAdd ID3 tag : NoCommand line compressor : C:\Program Files\Exact Audio Copy\Flac\flac.exeAdditional command line options : -V -8 -T "artist=%a" -T "title=%t" -T "album=%g" -T "date=%y" -T "tracknumber=%n" -T "genre=%m" %s

TOC of the extracted CD

Track | Start | Length | Start sector | End sector --------------------------------------------------------- 1 | 0:00.00 | 3:28.30 | 0 | 15629 2 | 3:28.30 | 1:34.52 | 15630 | 22731 3 | 5:03.07 | 2:30.51 | 22732 | 34032 4 | 7:33.58 | 2:07.01 | 34033 | 43558 5 | 9:40.59 | 1:57.29 | 43559 | 52362 6 | 11:38.13 | 3:06.46 | 52363 | 66358 7 | 14:44.59 | 1:58.29 | 66359 | 75237 8 | 16:43.13 | 1:35.68 | 75238 | 82430 9 | 18:19.06 | 2:29.63 | 82431 | 93668 10 | 20:48.69 | 2:18.73 | 93669 | 104091 11 | 23:07.67 | 2:18.23 | 104092 | 114464 12 | 25:26.15 | 3:43.60 | 114465 | 131249 13 | 29:10.00 | 1:51.47 | 131250 | 139621 14 | 31:01.47 | 4:19.22 | 139622 | 159068 15 | 35:20.69 | 4:48.21 | 159069 | 180689 16 | 40:09.15 | 2:29.26 | 180690 | 191890 17 | 42:38.41 | 3:43.07 | 191891 | 208622 18 | 46:21.48 | 3:13.50 | 208623 | 223147 19 | 49:35.23 | 3:09.22 | 223148 | 237344 20 | 52:44.45 | 1:20.37 | 237345 | 243381 21 | 54:05.07 | 1:34.54 | 243382 | 250485 22 | 55:39.61 | 5:55.18 | 250486 | 277128

Track 1

Filename D:\EACrips\Guy Farley - 2004 - Modigliani\01 - Modigliani Suite.wav

Pre-gap length 0:00:02.00

Peak level 94.5 % Extraction speed 4.0 X Track quality 100.0 % Copy CRC 88BFADBD Track not present in AccurateRip database Copy OK

Track 2

Filename D:\EACrips\Guy Farley - 2004 - Modigliani\02 - You can't change my destiny.wav

Peak level 82.4 % Extraction speed 4.3 X Track quality 100.0 % Copy CRC BB041BBC Track not present in AccurateRip database Copy OK

Track 3

Filename D:\EACrips\Guy Farley - 2004 - Modigliani\03 - The Hat First.wav

Pre-gap length 0:01:34.69

Peak level 74.9 % Extraction speed 4.5 X Track quality 100.0 % Copy CRC 0B84267B Track not present in AccurateRip database Copy OK

Track 4

Filename D:\EACrips\Guy Farley - 2004 - Modigliani\04 - Ancient Law.wav

Pre-gap length 0:04:05.37

Peak level 44.1 % Extraction speed 4.7 X Track quality 100.0 % Copy CRC DD03E93B Track not present in AccurateRip database Copy OK

Track 5

Filename D:\EACrips\Guy Farley - 2004 - Modigliani\05 - Confession.wav

Pre-gap length 0:06:12.38

Peak level 75.8 % Extraction speed 4.8 X Track quality 100.0 % Copy CRC 43F50C6F Track not present in AccurateRip database Copy OK

Track 6

Filename D:\EACrips\Guy Farley - 2004 - Modigliani\06 - La vie en rose.wav

Pre-gap length 0:08:09.77

Peak level 35.8 % Extraction speed 4.6 X Track quality 99.9 % Copy CRC BE3D9E1A Track not present in AccurateRip database Copy OK

Track 7

Filename D:\EACrips\Guy Farley - 2004 - Modigliani\07 - One Condition.wav

Pre-gap length 0:11:16.38

Peak level 100.0 % Extraction speed 5.3 X Track quality 100.0 % Copy CRC 86665F75 Track not present in AccurateRip database Copy OK

Track 8

Filename D:\EACrips\Guy Farley - 2004 - Modigliani\08 - Unfit Mother.wav

Pre-gap length 0:13:14.77

Peak level 55.1 % Extraction speed 4.7 X Track quality 100.0 % Copy CRC 0492B1F8 Track not present in AccurateRip database Copy OK

Track 9

Filename D:\EACrips\Guy Farley - 2004 - Modigliani\09 - Opium Den.wav

Pre-gap length 0:14:50.68

Peak level 78.5 % Extraction speed 5.6 X Track quality 100.0 % Copy CRC 5172B4DC Track not present in AccurateRip database Copy OK

Track 10

Filename D:\EACrips\Guy Farley - 2004 - Modigliani\10 - You'll Die With Him.wav

Pre-gap length 0:17:20.52

Peak level 38.6 % Extraction speed 5.6 X Track quality 100.0 % Copy CRC 6FCD944E Accurately ripped (confidence 1) [1740101A] Copy OK

Track 11

Filename D:\EACrips\Guy Farley - 2004 - Modigliani\11 - To Renoir.wav

Pre-gap length 0:19:39.49

Peak level 79.3 % Extraction speed 5.8 X Track quality 100.0 % Copy CRC EF20A1FF Track not present in AccurateRip database Copy OK

Track 12

Filename D:\EACrips\Guy Farley - 2004 - Modigliani\12 - Opium Nightmare.wav

Pre-gap length 0:21:57.80

Peak level 97.1 % Extraction speed 5.4 X Track quality 99.9 % Copy CRC 1963964F Track not present in AccurateRip database Copy OK

Track 13

Filename D:\EACrips\Guy Farley - 2004 - Modigliani\13 - Never again.wav

Pre-gap length 0:25:41.60

Peak level 88.4 % Extraction speed 5.7 X Track quality 100.0 % Copy CRC 0C292044 Track not present in AccurateRip database Copy OK

Track 14

Filename D:\EACrips\Guy Farley - 2004 - Modigliani\14 - Call the Police.wav

Pre-gap length 0:27:33.22

Peak level 100.0 % Extraction speed 6.6 X Track quality 100.0 % Copy CRC 6C780002 Track not present in AccurateRip database Copy OK

Track 15

Filename D:\EACrips\Guy Farley - 2004 - Modigliani\15 - Ode to Innocence.wav

Pre-gap length 0:31:52.52

Peak level 77.1 % Extraction speed 7.1 X Track quality 100.0 % Copy CRC 8E4E76EF Track not present in AccurateRip database Copy OK

Track 16

Filename D:\EACrips\Guy Farley - 2004 - Modigliani\16 - The Competition.wav

Pre-gap length 0:36:40.80

Peak level 76.2 % Extraction speed 6.9 X Track quality 100.0 % Copy CRC E340215C Track not present in AccurateRip database Copy OK

Track 17

Filename D:\EACrips\Guy Farley - 2004 - Modigliani\17 - Reach beyond Belief.wav

Pre-gap length 0:39:10.14

Peak level 77.0 % Extraction speed 7.4 X Track quality 100.0 % Copy CRC 5E1847C2 Track not present in AccurateRip database Copy OK

Track 18

Filename D:\EACrips\Guy Farley - 2004 - Modigliani\18 - Sleep Modi Sleep.wav

Pre-gap length 0:42:53.24

Peak level 85.3 % Extraction speed 7.2 X Track quality 100.0 % Copy CRC 92BF025D Track not present in AccurateRip database Copy OK

Track 19

Filename D:\EACrips\Guy Farley - 2004 - Modigliani\19 - My Empty Life.wav

Pre-gap length 0:46:06.90

Peak level 72.9 % Extraction speed 7.5 X Track quality 100.0 % Copy CRC 022B4B4A Track not present in AccurateRip database Copy OK

Track 20

Filename D:\EACrips\Guy Farley - 2004 - Modigliani\20 - Wait for Me.wav

Pre-gap length 0:49:16.20

Peak level 40.1 % Extraction speed 6.1 X Track quality 100.0 % Copy CRC 504F2311 Track not present in AccurateRip database Copy OK

Track 21

Filename D:\EACrips\Guy Farley - 2004 - Modigliani\21 - Jeanne's Dream.wav

Pre-gap length 0:50:36.69

Peak level 82.7 % Extraction speed 6.6 X Track quality 100.0 % Copy CRC 6EA469F5 Track not present in AccurateRip database Copy OK

Track 22

Filename D:\EACrips\Guy Farley - 2004 - Modigliani\22 - Angeli.wav

Pre-gap length 0:52:11.41

Peak level 45.6 % Extraction speed 8.2 X Track quality 100.0 % Copy CRC A89D8E74 Accurately ripped (confidence 1) [8A6B93B3] Copy OK

2 track(s) accurately ripped20 track(s) not present in the AccurateRip database

Some tracks could not be verified as accurate

No errors occurred

End of status report
 
REM GENRE SoundtrackREM DATE 2004REM DISCID 130E6F16REM COMMENT "ExactAudioCopy v1.0b1"PERFORMER "Guy Farley"TITLE ModiglianiFILE "01 - Modigliani Suite.wav" WAVE TRACK 01 AUDIO TITLE "Modigliani Suite" PERFORMER "Guy Farley" INDEX 01 00:00:00FILE "02 - You can't change my destiny.wav" WAVE TRACK 02 AUDIO TITLE "You Can't Change My Destiny" PERFORMER "Guy Farley" INDEX 01 00:00:00 TRACK 03 AUDIO TITLE "The Hat First" PERFORMER "Guy Farley" INDEX 00 00:00:00FILE "03 - The Hat First.wav"WAVE INDEX 01 00:00:00 TRACK 04 AUDIO TITLE "Ancient Law" PERFORMER "Guy Farley" INDEX 00 09:26:23FILE "04 - Ancient Law.wav" WAVE INDEX 01 00:00:00 TRACK 05 AUDIO TITLE "Confession" PERFORMER "Guy Farley" INDEX 00 06:55:47FILE "05 - Confession.wav" WAVE INDEX 01 00:00:00 TRACK 06 AUDIO TITLE "La Vie En Rose" PERFORMER "Guy Farley" INDEX 00 04:48:46FILE "06 - La Vie En Rose (Edith Piaf).wav" WAVE INDEX 01 00:00:00 TRACK 07 AUDIO TITLE "One Condition" PERFORMER "Guy Farley" INDEX 00 02:51:17FILE "07 - One Condition.wav" WAVE INDEX 01 00:00:00 TRACK 08 AUDIO TITLE "Unfit Mother" PERFORMER "Guy Farley" INDEX 00 99:44:46FILE "08 - Unfit Mother.wav"" WAVE INDEX 01 00:00:00 TRACK 09 AUDIO TITLE "Opium Den" PERFORMER "Guy Farley" INDEX 00 97:46:17FILE "09 - Opium Den.wav" WAVE INDEX 01 00:00:00 TRACK 10 AUDIO TITLE "You'll Die With Him" PERFORMER "Guy Farley" INDEX 00 96:10:24FILE "10 - You'll Die With Him.wav" WAVE INDEX 01 00:00:00 TRACK 11 AUDIO TITLE "To Renoir" PERFORMER "Guy Farley" INDEX 00 93:40:36FILE "11 - To Renoir.wav" WAVE INDEX 01 00:00:00 TRACK 12 AUDIO TITLE "Opium Nightmare" PERFORMER "Guy Farley" INDEX 00 91:21:38FILE "12 - Opium Nightmare, Featuring Canto Haim Tvi Lieder.wav" WAVE INDEX 01 00:00:00 TRACK 13 AUDIO TITLE "Never Again" PERFORMER "Guy Farley" INDEX 00 89:03:15FILE "13 - Never Again.wav" WAVE INDEX 01 00:00:00 TRACK 14 AUDIO TITLE "Call The Police" PERFORMER "Guy Farley" INDEX 00 85:19:30FILE "14 - Call The Police.wav"WAVE INDEX 01 00:00:00 TRACK 15 AUDIO TITLE "Ode To Innocence" PERFORMER "Guy Farley" INDEX 00 83:27:58FILE "15 - Ode To Innocence, Featuring Mojama (Sasha Lazard).wav" WAVE INDEX 01 00:00:00 TRACK 16 AUDIO TITLE "The Competition" PERFORMER "Guy Farley" INDEX 00 79:08:36FILE "16 - The Competition.wav" WAVE INDEX 01 00:00:00 TRACK 17 AUDIO TITLE "Reach Beyond Belief" PERFORMER "Guy Farley" INDEX 00 74:20:15FILE "17 - Reach Beyond Belief.wav"WAVE INDEX 01 00:00:00 TRACK 18 AUDIO TITLE "Sleep Modi Sleep" PERFORMER "Guy Farley" INDEX 00 71:50:64FILE "18 - Sleep Modi Sleep.wav" WAVE INDEX 01 00:00:00 TRACK 19 AUDIO TITLE "My Empty Life" PERFORMER "Guy Farley" INDEX 00 68:07:57FILE "19 - My Empty Life.wav" WAVE INDEX 01 00:00:00 TRACK 20 AUDIO TITLE "Wait For Me" PERFORMER "Guy Farley" INDEX 00 64:54:07FILE "20 - Wait For Me.wav" WAVE INDEX 01 00:00:00 TRACK 21 AUDIO TITLE "Jeanne's Dream" PERFORMER "Guy Farley" INDEX 00 61:44:60FILE "21 - Jeanne's Death.wav"WAVE INDEX 01 00:00:00 TRACK 22 AUDIO TITLE "Angeli" PERFORMER "Guy Farley" INDEX 00 50:24:23FILE "22 - Angeli (Sasha Lazard).wav"WAVE INDEX 01 00:00:00


Трекер:  [ 19-Янв-2012 21:52 ]

  

Скачать .torrent

Размер .torrent файла 13 KB


Размер: 285 MB
Хэш (hash) релиза: fb4839200682993810a970f039cc56092e1fb632

Торренты, похожие на Модильяни Modigliani скачать торрент

Форум Название Автор Размер S L Добавлен
Саундтреки к фильмам и мультфильмам (mp3) ·· (Score) Модильяни / Modigliani (by Guy Farley) - 2004, MP3 (tracks), 320 kbps Galfimbul 148260591141 MB 0 0 1423484128

15:15

9-Фев-15

Саундтреки к фильмам и мультфильмам (mp3) ·· (OST) Гай Фарли / Guy Farley — Модильяни / Modigliani — 2004, MP3, 128 kbps Солнышко 5906162156 MB 0 0 1292265612

21:40

13-Дек-10

bot

Топик был перенесен в форум Саундтреки к фильмам и мультфильмам (lossless)

Перенес uzi2009

Хотите добавить комментарий к записи скачать торрент Модильяни Modigliani

!Обратная связь