Скачать через торрент музыку Candy Dulfer - The Essential Candy Dulfer - 2008, FLAC бесплатно без регистрации torrent

Если у вас наблюдаются проблемы со скриншотами, переходом по ссылками, скачиванием торрентов - проблемы в блокировщике рекламы AdBlock. #хорошегоДня!


Статистика раздачи
Размер:  513 MB   |    Зарегистрирован:  5 лет 10 месяцев   |    .torrent скачан:  70 раз   |   
Раздают:  1  
   
Загрузка...
 
Автор Сообщение

L


Candy Dulfer - The Essential Candy Dulfer

Жанр: Instrumental, Smooth Jazz, Funk, Pop
Год выпуска диска: 2008
Производитель диска: Netherland - Sony BMG
Аудио кодек: FLAC
Тип рипа: tracks+.cue
Битрейт аудио: lossless
Продолжительность: 01:12:51
Треклист:
01. Lily Was Here (04:21)
02. Dance'Till You Bop (05:11)
03. Sax-A-Go-Go (03:59)
04. Pick Up The Pieces (04:03)
05. Funkyness (05:15)
06. Girls Should Stick Together (05:09)
07. So What (04:56)
08. Bob's Jazz (04:56)
09. 2 Funky (04:49)
10. Wake Me Up When It's Over (03:41)
11. Girls Night Out (03:26)
12. What Does It Take (To Win Your Love For Me) (04:18)
13. I Can't Make You Love Me (Live) (10:12)
14. For The Love Of You (Live) (08:35)

Источник: Avax Home
Exact Audio Copy V0.99 prebeta 5 from 4. May 2009

Отчёт EAC об извлечении, выполненном 30. апреля 2010, 21:13

Candy Dulfer / The Essential Candy Dulfer

Дисковод: MATSHITADVD-RAM UJ-832S Adapter: 0 ID: 1

Режим чтения : Достоверность
Использование точного потока : Да
Отключение кэша аудио : Да
Использование указателей C2 : Нет

Коррекция смещения при чтении : 102
Способность читать области Lead-in и Lead-out : Нет
Заполнение пропущенных сэмплов тишиной : Да
Удаление блоков с тишиной в начале и конце : Нет
При вычислениях CRC использовались нулевые сэмплы : Да
Интерфейс : Встроенный Win32-интерфейс для Win NT/2000
Обработка зазоров : Добавлено к предыдущему треку

Выходной формат : Внутренние WAV-операции
Формат сэмплов : 44.100 Гц; 16 бит; стерео

TOC извлечённого CD

Трек | Старт | Длительность | Начальный сектор | Конечный сектор
---------------------------------------------------------------------
1 | 0:00.00 | 4:20.61 | 0 | 19560
2 | 4:20.61 | 5:10.41 | 19561 | 42851
3 | 9:31.27 | 3:58.65 | 42852 | 60766
4 | 13:30.17 | 4:02.42 | 60767 | 78958
5 | 17:32.59 | 5:15.05 | 78959 | 102588
6 | 22:47.64 | 5:09.26 | 102589 | 125789
7 | 27:57.15 | 4:55.63 | 125790 | 147977
8 | 32:53.03 | 4:55.65 | 147978 | 170167
9 | 37:48.68 | 4:49.08 | 170168 | 191850
10 | 42:38.01 | 3:40.56 | 191851 | 208406
11 | 46:18.57 | 3:26.02 | 208407 | 223858
12 | 49:44.59 | 4:17.62 | 223859 | 243195
13 | 54:02.46 | 10:11.51 | 243196 | 289071
14 | 64:14.22 | 8:34.59 | 289072 | 327680

Трек 1

Имя файла F:\The Essential Candy Dulfer\01 - Lily Was Here.wav

Длина предзазора 0:00:02.00

Пиковый уровень 96.6 %
Качество трека 100.0 %
CRC теста E7E3B0F3
CRC копии E7E3B0F3
Точное извлечение (достоверность 3) [5A965F1C]
Копирование... OK

Трек 2

Имя файла F:\The Essential Candy Dulfer\02 - Dance'Till You Bop.wav

Длина предзазора 0:00:02.00

Пиковый уровень 76.2 %
Качество трека 100.0 %
CRC теста 70834785
CRC копии 70834785
Точное извлечение (достоверность 3) [C16E6ADE]
Копирование... OK

Трек 3

Имя файла F:\The Essential Candy Dulfer\03 - Sax-A-Go-Go.wav

Длина предзазора 0:00:02.00

Пиковый уровень 96.6 %
Качество трека 100.0 %
CRC теста C16DF41E
CRC копии C16DF41E
Точное извлечение (достоверность 4) [DAC7D534]
Копирование... OK

Трек 4

Имя файла F:\The Essential Candy Dulfer\04 - Pick Up The Pieces.wav

Длина предзазора 0:00:02.00

Пиковый уровень 96.6 %
Качество трека 100.0 %
CRC теста DF7994C2
CRC копии DF7994C2
Точное извлечение (достоверность 4) [D2C326B1]
Копирование... OK

Трек 5

Имя файла F:\The Essential Candy Dulfer\05 - Funkyness.wav

Длина предзазора 0:00:02.00

Пиковый уровень 95.5 %
Качество трека 100.0 %
CRC теста 6294ACEF
CRC копии 6294ACEF
Точное извлечение (достоверность 4) [4305423D]
Копирование... OK

Трек 6

Имя файла F:\The Essential Candy Dulfer\06 - Girls Should Stick Together.wav

Длина предзазора 0:00:02.00

Пиковый уровень 96.6 %
Качество трека 100.0 %
CRC теста B20052EC
CRC копии B20052EC
Точное извлечение (достоверность 4) [0C7BF8BB]
Копирование... OK

Трек 7

Имя файла F:\The Essential Candy Dulfer\07 - So What.wav

Длина предзазора 0:00:02.00

Пиковый уровень 96.6 %
Качество трека 99.9 %
CRC теста 468AECE9
CRC копии 468AECE9
Точное извлечение (достоверность 4) [ED66ACE6]
Копирование... OK

Трек 8

Имя файла F:\The Essential Candy Dulfer\08 - Bob's Jazz.wav

Длина предзазора 0:00:02.00

Пиковый уровень 96.6 %
Качество трека 99.9 %
CRC теста 6576758C
CRC копии 6576758C
Точное извлечение (достоверность 4) [3F731DE0]
Копирование... OK

Трек 9

Имя файла F:\The Essential Candy Dulfer\09 - 2 Funky.wav

Длина предзазора 0:00:02.00

Пиковый уровень 96.6 %
Качество трека 100.0 %
CRC теста 0D3F5ADC
CRC копии 0D3F5ADC
Точное извлечение (достоверность 4) [4091C627]
Копирование... OK

Трек 10

Имя файла F:\The Essential Candy Dulfer\10 - Wake Me Up When It's Over.wav

Длина предзазора 0:00:02.00

Пиковый уровень 95.5 %
Качество трека 100.0 %
CRC теста A0E5CBFD
CRC копии A0E5CBFD
Точное извлечение (достоверность 4) [362B9741]
Копирование... OK

Трек 11

Имя файла F:\The Essential Candy Dulfer\11 - Girls Night Out.wav

Длина предзазора 0:00:02.00

Пиковый уровень 95.9 %
Качество трека 100.0 %
CRC теста 6D8D1AAF
CRC копии 6D8D1AAF
Точное извлечение (достоверность 4) [25BD805E]
Копирование... OK

Трек 12

Имя файла F:\The Essential Candy Dulfer\12 - What Does It Take (To Win Your Love For Me).wav

Длина предзазора 0:00:02.00

Пиковый уровень 96.3 %
Качество трека 100.0 %
CRC теста E2AFED12
CRC копии E2AFED12
Точное извлечение (достоверность 4) [1603C374]
Копирование... OK

Трек 13

Имя файла F:\The Essential Candy Dulfer\13 - I Can't Make You Love Me (Live).wav

Длина предзазора 0:00:02.00

Пиковый уровень 96.6 %
Качество трека 99.9 %
CRC теста 653E2201
CRC копии 653E2201
Точное извлечение (достоверность 2) [0F4D5CA2]
Копирование... OK

Трек 14

Имя файла F:\The Essential Candy Dulfer\14 - For The Love Of You (Live).wav

Длина предзазора 0:00:02.00

Пиковый уровень 85.0 %
Качество трека 100.0 %
CRC теста F518E0C4
CRC копии F518E0C4
Точное извлечение (достоверность 4) [BE5E9B15]
Копирование... OK

Все треки извлечены точно

Ошибок не произошло

Конец отчёта
REM ACCURATERIPID 0022119a-016eca78-d511110e
REM GENRE Jazz
REM DATE 2008
REM DISCID D511110E
REM COMMENT "ExactAudioCopy v0.99pb5"
PERFORMER "Candy Dulfer"
TITLE "The Essential Candy Dulfer"
FILE "01 - Lily Was Here.flac" WAVE
TRACK 01 AUDIO
TITLE "Lily Was Here"
PERFORMER "Candy Dulfer"
ISRC GBARL8900064
INDEX 01 00:00:00
FILE "02 - Dance'Till You Bop.flac" WAVE
TRACK 02 AUDIO
TITLE "Dance'Till You Bop"
PERFORMER "Candy Dulfer"
ISRC NLA209900061
INDEX 01 00:00:00
FILE "03 - Sax-A-Go-Go.flac" WAVE
TRACK 03 AUDIO
TITLE "Sax-A-Go-Go"
PERFORMER "Candy Dulfer"
ISRC NLA200100181
INDEX 01 00:00:00
FILE "04 - Pick Up The Pieces.flac" WAVE
TRACK 04 AUDIO
TITLE "Pick Up The Pieces"
PERFORMER "Candy Dulfer"
ISRC NLA209300089
INDEX 01 00:00:00
FILE "05 - Funkyness.flac" WAVE
TRACK 05 AUDIO
TITLE "Funkyness"
PERFORMER "Candy Dulfer"
ISRC NLA209500570
INDEX 01 00:00:00
FILE "06 - Girls Should Stick Together.flac" WAVE
TRACK 06 AUDIO
TITLE "Girls Should Stick Together"
PERFORMER "Candy Dulfer"
ISRC NLA209700026
INDEX 01 00:00:00
FILE "07 - So What.flac" WAVE
TRACK 07 AUDIO
TITLE "So What"
PERFORMER "Candy Dulfer"
ISRC NLA200200163
INDEX 01 00:00:00
FILE "08 - Bob's Jazz.flac" WAVE
TRACK 08 AUDIO
TITLE "Bob's Jazz"
PERFORMER "Candy Dulfer"
ISRC NLA200000207
INDEX 01 00:00:00
FILE "09 - 2 Funky.flac" WAVE
TRACK 09 AUDIO
TITLE "2 Funky"
PERFORMER "Candy Dulfer"
ISRC NL2093000245
INDEX 01 00:00:00
FILE "10 - Wake Me Up When It's Over.flac" WAVE
TRACK 10 AUDIO
TITLE "Wake Me Up When It's Over"
PERFORMER "Candy Dulfer"
ISRC NLA209500031
INDEX 01 00:00:00
FILE "11 - Girls Night Out.flac" WAVE
TRACK 11 AUDIO
TITLE "Girls Night Out"
PERFORMER "Candy Dulfer"
ISRC NLA209900054
INDEX 01 00:00:00
FILE "12 - What Does It Take (To Win Your Love For Me).flac" WAVE
TRACK 12 AUDIO
TITLE "What Does It Take (To Win Your Love For Me)"
PERFORMER "Candy Dulfer"
ISRC NLA209900065
INDEX 01 00:00:00
FILE "13 - I Can't Make You Love Me (Live).flac" WAVE
TRACK 13 AUDIO
TITLE "I Can't Make You Love Me (Live)"
PERFORMER "Candy Dulfer"
ISRC NL2093000196
INDEX 01 00:00:00
FILE "14 - For The Love Of You (Live).flac" WAVE
TRACK 14 AUDIO
TITLE "For The Love Of You (Live)"
PERFORMER "Candy Dulfer"
ISRC NLA200000213
INDEX 01 00:00:00


Трекер:  [ 11-Дек-2011 21:54 ]

  

Скачать .torrent

Размер .torrent файла 12 KB


Размер: 513 MB
Хэш (hash) релиза: d136be3dba654052225a9cae7f69517aa82b61e4

Еще никто не оставлял запись к записи скачать торрент Candy Dulfer - The Essential Candy Dulfer - 2008, FLAC . Будь первым!

!Обратная связь