Скачать через торрент музыку Другая Земля Another Earth бесплатно без регистрации torrent

Если у вас наблюдаются проблемы со скриншотами, переходом по ссылками, скачиванием торрентов - проблемы в блокировщике рекламы AdBlock. #хорошегоДня!


Статистика раздачи
Размер:  261 MB   |    Зарегистрирован:  5 лет 8 месяцев   |    .torrent скачан:  43 раза   |   
Раздают:  1  
   
Загрузка...
 
Автор Сообщение

uzi2009

avatar uzi2009


Другая Земля / Another Earth



Жанр: Score
Композитор: Fall on Your Sword
Год выпуска диска: 2011
Производитель диска: USA
Аудио кодек: FLAC
Тип рипа: tracks+.cue
Битрейт аудио: lossless
Продолжительность: 00:54:18

Треклист:
01 - The First Time I Saw Jupiter (02:54)
02 - Bob The Robot (01:12)
03 - The Specialist; Am I Alone? (04:52)
04 - Naked On The Ice (01:46)
05 - Rhoda's Theme (05:55)
06 - The House Theme (01:23)
07 - The End Of The World (01:54)
08 - Rhoda's Application (01:37)
09 - Making Contact (01:16)
10 - I Am Over There (04:14)
11 - Purdeep's Theme (04:22)
12 - The Cosmonaut (02:01)
13 - The Specialist; Look At Ourselves (03:59)
14 - Sonatina In D Minor (01:19)
15 - Rhoda's Theme; Running To John (03:51)
16 - Forgive (02:40)
17 - Love Theme (01:58)
18 - The Other You (01:43)
19 - The First Time I Saw Jupiter; End Titles (05:21)
 
Exact Audio Copy V1.0 beta 3 from 29. August 2011

EAC extraction logfile from 9. December 2011, 14:18

Fall On Your Sword / Another Earth

Used drive : MATSHITADVD-RAM UJ-850S Adapter: 1 ID: 0

Read mode : SecureUtilize accurate stream : YesDefeat audio cache : YesMake use of C2 pointers : No

Read offset correction : 102Overread into Lead-In and Lead-Out : NoFill up missing offset samples with silence : YesDelete leading and trailing silent blocks : NoNull samples used in CRC calculations : YesUsed interface : Native Win32 interface for Win NT & 2000Gap handling : Appended to previous track

Used output format : User Defined EncoderSelected bitrate : 1024 kBit/sQuality : HighAdd ID3 tag : NoCommand line compressor : C:\Program Files\Exact Audio Copy\Flac\flac.exeAdditional command line options : -8 -V -T "ARTIST=%artist%" -T "TITLE=%title%" -T "ALBUM=%albumtitle%" -T "DATE=%year%" -T "TRACKNUMBER=%tracknr%" -T "GENRE=%genre%" -T "PERFORMER=%albuminterpret%" -T "COMPOSER=%composer%" %haslyrics%--tag-from-file=LYRICS="%lyricsfile%"%haslyrics% -T "ALBUMARTIST=%albumartist%" -T "DISCNUMBER=%cdnumber%" -T "TOTALDISCS=%totalcds%" -T "TOTALTRACKS=%numtracks%" -T "COMMENT=%comment%" %source% -o %dest%

TOC of the extracted CD

Track | Start | Length | Start sector | End sector --------------------------------------------------------- 1 | 0:00.00 | 2:54.29 | 0 | 13078 2 | 2:54.29 | 1:12.21 | 13079 | 18499 3 | 4:06.50 | 4:52.25 | 18500 | 40424 4 | 8:59.00 | 1:46.21 | 40425 | 48395 5 | 10:45.21 | 5:54.39 | 48396 | 74984 6 | 16:39.60 | 1:22.58 | 74985 | 81192 7 | 18:02.43 | 1:54.24 | 81193 | 89766 8 | 19:56.67 | 1:37.04 | 89767 | 97045 9 | 21:33.71 | 1:15.59 | 97046 | 102729 10 | 22:49.55 | 4:14.06 | 102730 | 121785 11 | 27:03.61 | 4:22.03 | 121786 | 141438 12 | 31:25.64 | 2:01.00 | 141439 | 150513 13 | 33:26.64 | 3:59.35 | 150514 | 168473 14 | 37:26.24 | 1:18.69 | 168474 | 174392 15 | 38:45.18 | 3:50.42 | 174393 | 191684 16 | 42:35.60 | 2:39.51 | 191685 | 203660 17 | 45:15.36 | 1:58.32 | 203661 | 212542 18 | 47:13.68 | 1:43.04 | 212543 | 220271 19 | 48:56.72 | 5:21.35 | 220272 | 244381

Track 1

Filename C:\EAC Rips\Fall On Your Sword - Another Earth (2011) [FLAC] The Real One\01 - Fall On Your Sword - The First Time I Saw Jupiter.wav

Pre-gap length 0:00:02.00

Peak level 99.9 % Extraction speed 1.4 X Track quality 100.0 % Test CRC 87081E1C Copy CRC 87081E1C Track not present in AccurateRip database Copy OK

Track 2

Filename C:\EAC Rips\Fall On Your Sword - Another Earth (2011) [FLAC] The Real One\02 - Fall On Your Sword - Bob The Robot.wav

Peak level 76.6 % Extraction speed 1.2 X Track quality 100.0 % Test CRC E34D7FF4 Copy CRC E34D7FF4 Track not present in AccurateRip database Copy OK

Track 3

Filename C:\EAC Rips\Fall On Your Sword - Another Earth (2011) [FLAC] The Real One\03 - Fall On Your Sword - The Specialist; Am I Alone.wav

Peak level 99.9 % Extraction speed 1.7 X Track quality 100.0 % Test CRC 9683499D Copy CRC 9683499D Track not present in AccurateRip database Copy OK

Track 4

Filename C:\EAC Rips\Fall On Your Sword - Another Earth (2011) [FLAC] The Real One\04 - Fall On Your Sword - Naked On The Ice.wav

Peak level 99.9 % Extraction speed 1.6 X Track quality 100.0 % Test CRC AFDC42D7 Copy CRC AFDC42D7 Track not present in AccurateRip database Copy OK

Track 5

Filename C:\EAC Rips\Fall On Your Sword - Another Earth (2011) [FLAC] The Real One\05 - Fall On Your Sword - Rhoda's Theme.wav

Peak level 99.9 % Extraction speed 2.0 X Track quality 100.0 % Test CRC 1547EFF3 Copy CRC 1547EFF3 Track not present in AccurateRip database Copy OK

Track 6

Filename C:\EAC Rips\Fall On Your Sword - Another Earth (2011) [FLAC] The Real One\06 - Fall On Your Sword - The House Theme.wav

Peak level 83.2 % Extraction speed 1.6 X Track quality 100.0 % Test CRC 135D4074 Copy CRC 135D4074 Track not present in AccurateRip database Copy OK

Track 7

Filename C:\EAC Rips\Fall On Your Sword - Another Earth (2011) [FLAC] The Real One\07 - Fall On Your Sword - The End Of The World.wav

Peak level 99.9 % Extraction speed 1.8 X Track quality 100.0 % Test CRC AE51C4DB Copy CRC AE51C4DB Track not present in AccurateRip database Copy OK

Track 8

Filename C:\EAC Rips\Fall On Your Sword - Another Earth (2011) [FLAC] The Real One\08 - Fall On Your Sword - Rhoda's Application.wav

Peak level 81.8 % Extraction speed 1.8 X Track quality 100.0 % Test CRC 3BAA0D88 Copy CRC 3BAA0D88 Track not present in AccurateRip database Copy OK

Track 9

Filename C:\EAC Rips\Fall On Your Sword - Another Earth (2011) [FLAC] The Real One\09 - Fall On Your Sword - Making Contact.wav

Peak level 97.6 % Extraction speed 1.7 X Track quality 100.0 % Test CRC 4DF6BC26 Copy CRC 4DF6BC26 Track not present in AccurateRip database Copy OK

Track 10

Filename C:\EAC Rips\Fall On Your Sword - Another Earth (2011) [FLAC] The Real One\10 - Fall On Your Sword - I Am Over There.wav

Peak level 99.9 % Extraction speed 2.3 X Track quality 100.0 % Test CRC 09B8D762 Copy CRC 09B8D762 Track not present in AccurateRip database Copy OK

Track 11

Filename C:\EAC Rips\Fall On Your Sword - Another Earth (2011) [FLAC] The Real One\11 - Fall On Your Sword - Purdeep's Theme.wav

Peak level 99.9 % Extraction speed 2.4 X Track quality 100.0 % Test CRC 13FBDF69 Copy CRC 13FBDF69 Track not present in AccurateRip database Copy OK

Track 12

Filename C:\EAC Rips\Fall On Your Sword - Another Earth (2011) [FLAC] The Real One\12 - Fall On Your Sword - The Cosmonaut.wav

Peak level 78.5 % Extraction speed 2.2 X Track quality 100.0 % Test CRC BE5E055E Copy CRC BE5E055E Track not present in AccurateRip database Copy OK

Track 13

Filename C:\EAC Rips\Fall On Your Sword - Another Earth (2011) [FLAC] The Real One\13 - Fall On Your Sword - The Specialist; Look At Ourselves.wav

Peak level 99.9 % Extraction speed 2.5 X Track quality 100.0 % Test CRC C14839FD Copy CRC C14839FD Track not present in AccurateRip database Copy OK

Track 14

Filename C:\EAC Rips\Fall On Your Sword - Another Earth (2011) [FLAC] The Real One\14 - Phaedon Papadopoulos - Sonatina In D Minor.wav

Peak level 48.5 % Extraction speed 2.0 X Track quality 100.0 % Test CRC 9F617F78 Copy CRC 9F617F78 Track not present in AccurateRip database Copy OK

Track 15

Filename C:\EAC Rips\Fall On Your Sword - Another Earth (2011) [FLAC] The Real One\15 - Fall On Your Sword - Rhoda's Theme; Running To John.wav

Peak level 99.9 % Extraction speed 2.6 X Track quality 100.0 % Test CRC 5C7E0574 Copy CRC 5C7E0574 Track not present in AccurateRip database Copy OK

Track 16

Filename C:\EAC Rips\Fall On Your Sword - Another Earth (2011) [FLAC] The Real One\16 - Fall On Your Sword - Forgive.wav

Peak level 99.9 % Extraction speed 2.2 X Track quality 99.9 % Test CRC F4CCEC01 Copy CRC F4CCEC01 Track not present in AccurateRip database Copy OK

Track 17

Filename C:\EAC Rips\Fall On Your Sword - Another Earth (2011) [FLAC] The Real One\17 - Fall On Your Sword - Love Theme.wav

Peak level 99.8 % Extraction speed 2.4 X Track quality 100.0 % Test CRC EBFDAB6E Copy CRC EBFDAB6E Track not present in AccurateRip database Copy OK

Track 18

Filename C:\EAC Rips\Fall On Your Sword - Another Earth (2011) [FLAC] The Real One\18 - Fall On Your Sword - The Other You.wav

Peak level 99.9 % Extraction speed 2.4 X Track quality 100.0 % Test CRC 2E3A2EED Copy CRC 2E3A2EED Track not present in AccurateRip database Copy OK

Track 19

Filename C:\EAC Rips\Fall On Your Sword - Another Earth (2011) [FLAC] The Real One\19 - Fall On Your Sword - The First Time I Saw Jupiter; End Titles.wav

Peak level 99.9 % Extraction speed 3.0 X Track quality 100.0 % Test CRC 9E336CCF Copy CRC 9E336CCF Track not present in AccurateRip database Copy OK

None of the tracks are present in the AccurateRip database

No errors occurred

End of status report

---- CUETools DB Plugin V2.1.3

[CTDB TOCID: LRfCX8rHZuSzqpwa9cyr0g0StGw-] found, Submit result: already submitted[4b733b74] (1/1) Accurately ripped

==== Log checksum 81755D4AD50D3D632B122B2993B2502ECC78D404AA5BB23371998794B7862692 ====
 
REM GENRE SoundtrackREM DATE 2011REM DISCID 130CBA13REM COMMENT "ExactAudioCopy v1.0b3"PERFORMER "Fall On Your Sword"TITLE "Another Earth"FILE "01 - The First Time I Saw Jupiter.wav" WAVE TRACK 01 AUDIO TITLE "The First Time I Saw Jupiter" PERFORMER "Fall On Your Sword" INDEX 01 00:00:00FILE "02 - Bob The Robot.wav" WAVE TRACK 02 AUDIO TITLE "Bob The Robot" PERFORMER "Fall On Your Sword" INDEX 01 00:00:00FILE "03 - The Specialist; Am I Alone_.wav" WAVE TRACK 03 AUDIO TITLE "The Specialist; Am I Alone?" PERFORMER "Fall On Your Sword" INDEX 01 00:00:00FILE "04 - Naked On The Ice.wav" WAVE TRACK 04 AUDIO TITLE "Naked On The Ice" PERFORMER "Fall On Your Sword" INDEX 01 00:00:00FILE "05 - Rhoda's Theme.wav" WAVE TRACK 05 AUDIO TITLE "Rhoda's Theme" PERFORMER "Fall On Your Sword" INDEX 01 00:00:00FILE "06 - The House Theme.wav" WAVE TRACK 06 AUDIO TITLE "The House Theme" PERFORMER "Fall On Your Sword" INDEX 01 00:00:00FILE "07 - The End Of The World.wav" WAVE TRACK 07 AUDIO TITLE "The End Of The World" PERFORMER "Fall On Your Sword" INDEX 01 00:00:00FILE "08 - Rhoda's Application.wav" WAVE TRACK 08 AUDIO TITLE "Rhoda's Application" PERFORMER "Fall On Your Sword" INDEX 01 00:00:00FILE "09 - Making Contact.wav" WAVE TRACK 09 AUDIO TITLE "Making Contact" PERFORMER "Fall On Your Sword" INDEX 01 00:00:00FILE "10 - I Am Over There.wav" WAVE TRACK 10 AUDIO TITLE "I Am Over There" PERFORMER "Fall On Your Sword" INDEX 01 00:00:00FILE "11 - Purdeep's Theme.wav" WAVE TRACK 11 AUDIO TITLE "Purdeep's Theme" PERFORMER "Fall On Your Sword" INDEX 01 00:00:00FILE "12 - The Cosmonaut.wav" WAVE TRACK 12 AUDIO TITLE "The Cosmonaut" PERFORMER "Fall On Your Sword" INDEX 01 00:00:00FILE "13 - The Specialist; Look At Ourselves.wav" WAVE TRACK 13 AUDIO TITLE "The Specialist; Look At Ourselves" PERFORMER "Fall On Your Sword" INDEX 01 00:00:00FILE "14 - Sonatina In D Minor.wav" WAVE TRACK 14 AUDIO TITLE "Sonatina In D Minor" PERFORMER "Phaedon Papadopoulos" INDEX 01 00:00:00FILE "15 - Rhoda's Theme; Running To John.wav" WAVE TRACK 15 AUDIO TITLE "Rhoda's Theme; Running To John" PERFORMER "Fall On Your Sword" INDEX 01 00:00:00FILE "16 - Forgive.wav" WAVE TRACK 16 AUDIO TITLE "Forgive" PERFORMER "Fall On Your Sword" INDEX 01 00:00:00FILE "17 - Love Theme.wav" WAVE TRACK 17 AUDIO TITLE "Love Theme" PERFORMER "Fall On Your Sword" INDEX 01 00:00:00FILE "18 - The Other You.wav" WAVE TRACK 18 AUDIO TITLE "The Other You" PERFORMER "Fall On Your Sword" INDEX 01 00:00:00FILE "19 - The First Time I Saw Jupiter; End Titles.wav" WAVE TRACK 19 AUDIO TITLE "The First Time I Saw Jupiter; End Titles" PERFORMER "Fall On Your Sword" INDEX 01 00:00:00


Трекер:  [ 19-Янв-2012 21:44 ]

  

Скачать .torrent

Размер .torrent файла 12 KB


Размер: 261 MB
Хэш (hash) релиза: debe1255392cd3205f4c7d8cced370857aafacd4

Торренты, похожие на Другая Земля Another Earth скачать торрент

Форум Название Автор Размер S L Добавлен
Саундтреки к фильмам и мультфильмам (mp3) ·· (Score) Другая Земля / Another Earth (by Fall on Your Sword) - 2011, MP3, 320 kbps Galfimbul 130568463125 MB 0 0 1323519691

15:21

10-Дек-11

bot

Топик был перенесен в форум Саундтреки к фильмам и мультфильмам (lossless)

Перенес uzi2009

Хотите добавить комментарий к записи скачать торрент Другая Земля Another Earth

!Обратная связь