Скачать через торрент музыку Владимир Высоцкий - Высоцкий. Спасибо, что живой бесплатно без регистрации torrent

Если у вас наблюдаются проблемы со скриншотами, переходом по ссылками, скачиванием торрентов - проблемы в блокировщике рекламы AdBlock. #хорошегоДня!


Статистика раздачи
Размер:  614 MB   |    Зарегистрирован:  5 лет 11 месяцев   |    .torrent скачан:  299 раз   |   
Раздают:  1  
   
Загрузка...
 
Автор Сообщение

L


Владимир Высоцкий - Высоцкий. Спасибо, что живой (Амфора, 10 CD)


Жанр: Авторская песня
Страна-производитель диска: Россия
Год издания дисков: 2011
Издатель (лейбл): © ЗАО ТИД "Амфора", © Высоцкий В.С., наследники
ISBN: 978-5-4357-02108-0, 978-5-367-02109-7, 978-5-4357-02110-3, 978-5-4357-02111-0, 978-5-4357-02112-7
Серия: Высоцкий. Спасибо, что живой
Аудиокодек: (*.m4a)
Тип рипа: tracks
Битрейт аудио: lossless
Продолжительность:
1. Выйти живым из боя: 36,2 мин.
2. Я был душой дурного общества...: 35,9 мин.
3. Летела жизнь в плохом автомобиле: 39,0 мин.
4. Больно мне за наш СССР: xx,x мин.
5. Любой из нас-ну чем не чародей?!: xx,x мин.

Источник (релизер): Коллекционные Аудио-CD
Программа-риповщик: X Lossless Decoder (XLD)
Наличие сканов в содержимом раздачи: Нет



Владимир Семёнович Высоцкий - (25 января 1938, Москва — 25 июля 1980, ) — советский поэт и бард, актёр, автор прозаических произведений. Лауреат Государственной премии СССР.

Уже при жизни стал человеком-эпохой. Его уникальный голос обладал магическим воздействием на слушателей. Песни Высоцкого звучали почти во всех домах, их переписывали и заучивали. В них искали ответы на самые разные жизненные вопросы, которые по-настоящему волновали современников. Как известно, поэт в России больше, чем поэт. И явление Владимира Высоцкого, его место в истории русской культуры — яркое тому подтверждение.

Владимир Высоцкий сыграл десятки ролей в театре и кино, в том числе Гамлета («Гамлет», В. Шекспир), Лопахина («Вишневый Сад», А. Чехов). Наиболее интересные работы в кинематографе «Место встречи изменить нельзя», «Маленькие трагедии», «Интервенция», «Хозяин тайги», «Вертикаль»). Актер театра Драмы и комедии на Таганке в Москве, Россия, созданного Юрием Любимовым в финале Хрущевской оттепели 1964 года.
Владимир Высоцкий вошел в историю как автор-исполнитель своих стихов и песен под акустическую семиструнную «русскую» гитару.
По итогам опроса ВЦИОМ, проводившегося в 2010 году, Высоцкий занял второе место в списке «кумиров XX века» после Юрия Гагарина. Опрос, проведенный ФОМ в середине июля 2011 года, продемонстрировал, что несмотря на снижение интереса к творчеству Высоцкого, абсолютное большинство знает Высоцкого, а около 70 процентов ответили, что относятся к нему положительно и считают его творчество важным явлением отечественной культуры 20-го века.



Создатели фильма «Адмирал» в сотрудничестве с Первым каналом в декабре выпускают на экраны страны полнометражный фильм «Высоцкий. Спасибо, что живой». Выход картины станет грандиозным культурным событием.К главной российской премьере года издательство «Амфора» подготовило уникальное собрание сочинений Владимира Высоцкого в 11 томах.Уникальность этого собрания в том, что тексты стихотворений впервые печатаются не по расшифровкам фонограмм, где то или иное слово звучит не всегда понятно, а по ранее не известным широкой публике рукописям Высоцкого. Первые десять томов издания — это собрание песен-стихотворений, содержащее не только сами тексты поэта и актера, но и обширный комментарий к ним, сопровождаемый сотнями редких фотографий из частных коллекций и Музея Высоцкого. В комментариях приводится история появления, исполнения и жизни песен, свидетельства друзей и близких актера, объясняются реалии жизни, истории и культуры, которые отразились в тексте. Это многотомная иллюстрированная энциклопедия Высоцкого, в которой в полном объеме представлено не только творчество одного из величайших русских поэтов ХХ века, но и мир, в котором он жил.

Дополнительным одиннадцатым томом в собрание входит роман Никиты Высоцкого, ставший сценарной основой картины «Высоцкий. Спасибо, что живой». В этой книге впервые откровенно и без прикрас рассказана история последнего года жизни легендарного барда.

В основу издания положен тематический принцип, в каждом томе собраны произведения Высоцкого, близкие между собой по тематике и духу: героические, романтические, сатирические, философские.

Прилагаемые к каждому тому диски с песнями позволяют услышать, как сам Высоцкий исполнял свои произведения. Живой голос, оживший взгляд, восстановленная связь времен — единое пространство нового документированного собрания сочинений поэта.



Уникальные записи из коллекции семьи Высоцких (Никиты Высоцкого), ранее не издаваемых!!!Фонограмма предоставлена Государственным культурным центром-музеем В.С. Высоцкого.
b]Альбомы (треклисты):[/b]

01. Штрафные батальоны - 2:51
02. В госпитале - 1:06
03. Братские могилы - 1:18
04. Случай в ресторане - 1:49
05. Песня самолета-истребителя - 3:31
06. Песня о земле - 2:04
07. Он не вернулся из боя - 2:20
08. Тот, который не стрелял - 2:55
09. Мы вращаем землю - 3:28
10. Песня о друге - 2:53
11. Вершина - 2:32
12. Прощание с горами - 2:46
13. Спасите наши души - 3:56
14. Гимн морю и горам - 2:47

01. Татуировка - 2:02
02. Красное, зеленое - 1:03
03. Наводчица - 1:44
04. Тот, кто раньше с нею был - 2:37
05. Гитара - 2:04
06. Не уводите меня из весны - 1:59
07. За меня невеста отрыдает честно - 2:06
08. Я в деле - 1:17
09. Песня про стукача - 2:21
10. Эй, шофер, вези - Бутырский хутор - 1:37
11. Банька по-белому - 7:51
12. Разбойничья - 3:43
13. Был побег на рывок - 5:39

01. Бал-маскарад - 1:34
02. Песня завистника - 1:44
03. Ой, где был я вчера - 2:50
04. Песня-сказка про джина - 3:01
05. Из детства - 2:02
06. Песенка о слухах - 2:55
07. Милицейский протокол - 3:39
08. Товарищи учёные! - 2:49
09. Мишка Шифман - 3:00
10. Диалог у телевизора - 3:37
11. Летела жизнь - 4:40
12. Письмо в редакцию - 4:27
13. Лекция о международном положении - 2:50

01. Песня командировочного - 3:17
02. Поездка в город -2:35
03. Песенка про йога - 1:50
04. Инструкция перед поездкой за рубеж - 4:50
05. Утренняя гимнастика - 1:36
06. Песня для выезжающих за границу - 1:49
07. Письмо к другу - 1:33
08. Возле города Пекина - 1:41
09. Я был слесарь шестого разряда - 1:31
10. У домашних и хищных зверей - 1:17
11. Потеряю истинную веру - 0:45
12. Посещение Музы, или песенка плагиатора - 1:54
13. Не покупают никакой еды - 1:55
14. Маски - 2:45

01.
02.
03.
04.
05.
06.
07.
08.
09.
10.
11.
12.
13.

Информация:
 
X Lossless Decoder version 20111113 (137.1)

XLD extraction logfile from 2011-11-16 15:27:15 +0000

Владимир Высоцкий / Выйти живым из боя

Used drive : HL-DT-ST DVDRW GA11N (revision JA18)

Ripper mode : CDParanoia III 10.2Disable audio cache : OK for the drive with a cache less than 2750KiBMake use of C2 pointers : NORead offset correction : 667Max retry count : 100Gap status : Analyzed, Appended

TOC of the extracted CD Track | Start | Length | Start sector | End sector --------------------------------------------------------- 1 | 00:00:00 | 02:51:37 | 0 | 12861 2 | 02:51:37 | 01:06:20 | 12862 | 17831 3 | 03:57:57 | 01:18:34 | 17832 | 23715 4 | 05:16:16 | 01:48:52 | 23716 | 31867 5 | 07:04:68 | 03:31:10 | 31868 | 47702 6 | 10:36:03 | 02:03:51 | 47703 | 56978 7 | 12:39:54 | 02:20:04 | 56979 | 67482 8 | 14:59:58 | 02:55:01 | 67483 | 80608 9 | 17:54:59 | 03:28:12 | 80609 | 96220 10 | 21:22:71 | 02:53:18 | 96221 | 109213 11 | 24:16:14 | 02:31:60 | 109214 | 120598 12 | 26:47:74 | 02:46:28 | 120599 | 133076 13 | 29:34:27 | 03:56:29 | 133077 | 150805 14 | 33:30:56 | 02:47:35 | 150806 | 163365

AccurateRip Summary Disc not found in AccurateRip DB.

All Tracks Album gain : -7.18 dB Peak : 0.999969 Statistics Read error : 0 Skipped (treated as error) : 0 Edge jitter error (maybe fixed) : 0 Atom jitter error (maybe fixed) : 0 Drift error (maybe fixed) : 0 Dropped bytes error (maybe fixed) : 0 Duplicated bytes error (maybe fixed) : 0

Track 01 Filename : /Users/iFamily/Music/iCollection/Высоцкий/2011-Выйти живым из боя/01 Владимир Высоцкий - Штрафные батальоны.m4a Pre-gap length : 00:02:00

Track gain : -6.45 dB Peak : 0.998840 CRC32 hash (test run) : C75FCA6C CRC32 hash : C75FCA6C CRC32 hash (skip zero) : 498A2B86 AccurateRip signature : 196A45A0 ->Track not present in AccurateRip database. Statistics Read error : 0 Skipped (treated as error) : 0 Edge jitter error (maybe fixed) : 0 Atom jitter error (maybe fixed) : 0 Drift error (maybe fixed) : 0 Dropped bytes error (maybe fixed) : 0 Duplicated bytes error (maybe fixed) : 0 Inconsistency in error sectors : 0

Track 02 Filename : /Users/iFamily/Music/iCollection/Высоцкий/2011-Выйти живым из боя/02 Владимир Высоцкий - В госпитале.m4a Pre-gap length : 00:02:00

Track gain : -5.91 dB Peak : 0.998840 CRC32 hash (test run) : B0FF3D77 CRC32 hash : B0FF3D77 CRC32 hash (skip zero) : 5943BCCD AccurateRip signature : A4966778 ->Track not present in AccurateRip database. Statistics Read error : 0 Skipped (treated as error) : 0 Edge jitter error (maybe fixed) : 0 Atom jitter error (maybe fixed) : 0 Drift error (maybe fixed) : 0 Dropped bytes error (maybe fixed) : 0 Duplicated bytes error (maybe fixed) : 0 Inconsistency in error sectors : 0

Track 03 Filename : /Users/iFamily/Music/iCollection/Высоцкий/2011-Выйти живым из боя/03 Владимир Высоцкий - Братские могилы.m4a Pre-gap length : 00:02:00

Track gain : -6.40 dB Peak : 0.891235 CRC32 hash (test run) : DF56823A CRC32 hash : DF56823A CRC32 hash (skip zero) : 82F4FFD5 AccurateRip signature : 4BE8192A ->Track not present in AccurateRip database. Statistics Read error : 0 Skipped (treated as error) : 0 Edge jitter error (maybe fixed) : 0 Atom jitter error (maybe fixed) : 0 Drift error (maybe fixed) : 0 Dropped bytes error (maybe fixed) : 0 Duplicated bytes error (maybe fixed) : 0 Inconsistency in error sectors : 0

Track 04 Filename : /Users/iFamily/Music/iCollection/Высоцкий/2011-Выйти живым из боя/04 Владимир Высоцкий - Случай в ресторане.m4a Pre-gap length : 00:02:00

Track gain : -6.63 dB Peak : 0.999969 CRC32 hash (test run) : AF474F02 CRC32 hash : AF474F02 CRC32 hash (skip zero) : D5CC1DE3 AccurateRip signature : 7E577F17 ->Track not present in AccurateRip database. Statistics Read error : 0 Skipped (treated as error) : 0 Edge jitter error (maybe fixed) : 0 Atom jitter error (maybe fixed) : 0 Drift error (maybe fixed) : 0 Dropped bytes error (maybe fixed) : 0 Duplicated bytes error (maybe fixed) : 0 Inconsistency in error sectors : 0

Track 05 Filename : /Users/iFamily/Music/iCollection/Высоцкий/2011-Выйти живым из боя/05 Владимир Высоцкий - Песня самолета-истребителя.m4a Pre-gap length : 00:02:00

Track gain : -8.49 dB Peak : 0.992523 CRC32 hash (test run) : B1166FC8 CRC32 hash : B1166FC8 CRC32 hash (skip zero) : 101A4364 AccurateRip signature : D244D8D0 ->Track not present in AccurateRip database. Statistics Read error : 0 Skipped (treated as error) : 0 Edge jitter error (maybe fixed) : 0 Atom jitter error (maybe fixed) : 0 Drift error (maybe fixed) : 0 Dropped bytes error (maybe fixed) : 0 Duplicated bytes error (maybe fixed) : 0 Inconsistency in error sectors : 0

Track 06 Filename : /Users/iFamily/Music/iCollection/Высоцкий/2011-Выйти живым из боя/06 Владимир Высоцкий - Песня о земле.m4a Pre-gap length : 00:02:00

Track gain : -6.58 dB Peak : 0.884338 CRC32 hash (test run) : 23D1088B CRC32 hash : 23D1088B CRC32 hash (skip zero) : 4417E4E0 AccurateRip signature : C26A6E5C ->Track not present in AccurateRip database. Statistics Read error : 0 Skipped (treated as error) : 0 Edge jitter error (maybe fixed) : 0 Atom jitter error (maybe fixed) : 0 Drift error (maybe fixed) : 0 Dropped bytes error (maybe fixed) : 0 Duplicated bytes error (maybe fixed) : 0 Inconsistency in error sectors : 0

Track 07 Filename : /Users/iFamily/Music/iCollection/Высоцкий/2011-Выйти живым из боя/07 Владимир Высоцкий - Он не вернулся из боя.m4a Pre-gap length : 00:02:00

Track gain : -3.75 dB Peak : 0.753693 CRC32 hash (test run) : 4A18A69A CRC32 hash : 4A18A69A CRC32 hash (skip zero) : CE0FA426 AccurateRip signature : 161D7311 ->Track not present in AccurateRip database. Statistics Read error : 0 Skipped (treated as error) : 0 Edge jitter error (maybe fixed) : 0 Atom jitter error (maybe fixed) : 0 Drift error (maybe fixed) : 0 Dropped bytes error (maybe fixed) : 0 Duplicated bytes error (maybe fixed) : 0 Inconsistency in error sectors : 0

Track 08 Filename : /Users/iFamily/Music/iCollection/Высоцкий/2011-Выйти живым из боя/08 Владимир Высоцкий - Тот, который не стрелял.m4a Pre-gap length : 00:02:00

Track gain : -6.69 dB Peak : 0.943604 CRC32 hash (test run) : 40F371FC CRC32 hash : 40F371FC CRC32 hash (skip zero) : F1B89E5D AccurateRip signature : 5BAA195F ->Track not present in AccurateRip database. Statistics Read error : 0 Skipped (treated as error) : 0 Edge jitter error (maybe fixed) : 0 Atom jitter error (maybe fixed) : 0 Drift error (maybe fixed) : 0 Dropped bytes error (maybe fixed) : 0 Duplicated bytes error (maybe fixed) : 0 Inconsistency in error sectors : 0

Track 09 Filename : /Users/iFamily/Music/iCollection/Высоцкий/2011-Выйти живым из боя/09 Владимир Высоцкий - Мы вращаем землю.m4a Pre-gap length : 00:02:00

Track gain : -8.72 dB Peak : 0.978333 CRC32 hash (test run) : 02EA12F8 CRC32 hash : 02EA12F8 CRC32 hash (skip zero) : 320FE99B AccurateRip signature : 64D717BB ->Track not present in AccurateRip database. Statistics Read error : 0 Skipped (treated as error) : 0 Edge jitter error (maybe fixed) : 0 Atom jitter error (maybe fixed) : 0 Drift error (maybe fixed) : 0 Dropped bytes error (maybe fixed) : 0 Duplicated bytes error (maybe fixed) : 0 Inconsistency in error sectors : 0

Track 10 Filename : /Users/iFamily/Music/iCollection/Высоцкий/2011-Выйти живым из боя/10 Владимир Высоцкий - Песня о друге.m4a Pre-gap length : 00:02:00

Track gain : -6.44 dB Peak : 0.947296 CRC32 hash (test run) : 6BF01176 CRC32 hash : 6BF01176 CRC32 hash (skip zero) : 78EB6AF6 AccurateRip signature : D74F131D ->Track not present in AccurateRip database. Statistics Read error : 0 Skipped (treated as error) : 0 Edge jitter error (maybe fixed) : 0 Atom jitter error (maybe fixed) : 0 Drift error (maybe fixed) : 0 Dropped bytes error (maybe fixed) : 0 Duplicated bytes error (maybe fixed) : 0 Inconsistency in error sectors : 0

Track 11 Filename : /Users/iFamily/Music/iCollection/Высоцкий/2011-Выйти живым из боя/11 Владимир Высоцкий - Вершина.m4a Pre-gap length : 00:02:00

Track gain : -8.06 dB Peak : 0.970367 CRC32 hash (test run) : 668B86E0 CRC32 hash : 668B86E0 CRC32 hash (skip zero) : 54454681 AccurateRip signature : DAE6303D ->Track not present in AccurateRip database. Statistics Read error : 0 Skipped (treated as error) : 0 Edge jitter error (maybe fixed) : 0 Atom jitter error (maybe fixed) : 0 Drift error (maybe fixed) : 0 Dropped bytes error (maybe fixed) : 0 Duplicated bytes error (maybe fixed) : 0 Inconsistency in error sectors : 0

Track 12 Filename : /Users/iFamily/Music/iCollection/Высоцкий/2011-Выйти живым из боя/12 Владимир Высоцкий - Прощание с горами.m4a Pre-gap length : 00:02:00

Track gain : -5.40 dB Peak : 0.998840 CRC32 hash (test run) : 10097DE5 CRC32 hash : 10097DE5 CRC32 hash (skip zero) : 36DAE384 AccurateRip signature : 0A287D9A ->Track not present in AccurateRip database. Statistics Read error : 0 Skipped (treated as error) : 0 Edge jitter error (maybe fixed) : 0 Atom jitter error (maybe fixed) : 0 Drift error (maybe fixed) : 0 Dropped bytes error (maybe fixed) : 0 Duplicated bytes error (maybe fixed) : 0 Inconsistency in error sectors : 0

Track 13 Filename : /Users/iFamily/Music/iCollection/Высоцкий/2011-Выйти живым из боя/13 Владимир Высоцкий - Спасите наши души!.m4a Pre-gap length : 00:02:00

Track gain : -7.13 dB Peak : 0.975433 CRC32 hash (test run) : 03139A16 CRC32 hash : 03139A16 CRC32 hash (skip zero) : 09B7EE3B AccurateRip signature : D1B77456 ->Track not present in AccurateRip database. Statistics Read error : 0 Skipped (treated as error) : 0 Edge jitter error (maybe fixed) : 0 Atom jitter error (maybe fixed) : 0 Drift error (maybe fixed) : 0 Dropped bytes error (maybe fixed) : 0 Duplicated bytes error (maybe fixed) : 0 Inconsistency in error sectors : 0

Track 14 Filename : /Users/iFamily/Music/iCollection/Высоцкий/2011-Выйти живым из боя/14 Владимир Высоцкий - Гимн морю и горам.m4a Pre-gap length : 00:02:00

Track gain : -6.49 dB Peak : 0.739624 CRC32 hash (test run) : FBFB17C9 CRC32 hash : FBFB17C9 CRC32 hash (skip zero) : 4CA4C6FC AccurateRip signature : 77D038C1 ->Track not present in AccurateRip database. Statistics Read error : 0 Skipped (treated as error) : 0 Edge jitter error (maybe fixed) : 0 Atom jitter error (maybe fixed) : 0 Drift error (maybe fixed) : 0 Dropped bytes error (maybe fixed) : 0 Duplicated bytes error (maybe fixed) : 0 Inconsistency in error sectors : 0

No errors occurred

End of status report
 
X Lossless Decoder version 20111113 (137.1)

XLD extraction logfile from 2011-11-21 15:05:39 +0000

Владимир Высоцкий / Я был душой дурного общества...

Used drive : HL-DT-ST DVDRW GA11N (revision JA18)

Ripper mode : CDParanoia III 10.2Disable audio cache : OK for the drive with a cache less than 2750KiBMake use of C2 pointers : NORead offset correction : 667Max retry count : 100Gap status : Analyzed, Appended

TOC of the extracted CD Track | Start | Length | Start sector | End sector --------------------------------------------------------- 1 | 00:00:00 | 02:01:74 | 0 | 9148 2 | 02:01:74 | 01:02:63 | 9149 | 13861 3 | 03:04:62 | 01:44:21 | 13862 | 21682 4 | 04:49:08 | 02:37:02 | 21683 | 33459 5 | 07:26:10 | 02:03:60 | 33460 | 42744 6 | 09:29:70 | 01:58:62 | 42745 | 51656 7 | 11:28:57 | 02:06:25 | 51657 | 61131 8 | 13:35:07 | 01:17:36 | 61132 | 66942 9 | 14:52:43 | 02:20:47 | 66943 | 77489 10 | 17:13:15 | 01:36:60 | 77490 | 84749 11 | 18:50:00 | 07:51:21 | 84750 | 120095 12 | 26:41:21 | 03:43:04 | 120096 | 136824 13 | 30:24:25 | 05:38:58 | 136825 | 162232

AccurateRip Summary Disc not found in AccurateRip DB.

All Tracks Album gain : -7.45 dB Peak : 0.999725 Statistics Read error : 0 Skipped (treated as error) : 0 Edge jitter error (maybe fixed) : 0 Atom jitter error (maybe fixed) : 0 Drift error (maybe fixed) : 0 Dropped bytes error (maybe fixed) : 0 Duplicated bytes error (maybe fixed) : 0

Track 01 Filename : /Users/iFamily/Music/iCollection/Высоцкий. Спасибо что живой/2011 - Я был душой дурного общества.../01 Владимир Высоцкий - Татуировка.m4a Pre-gap length : 00:02:00

Track gain : -6.70 dB Peak : 0.985657 CRC32 hash (test run) : B93FD6AD CRC32 hash : B93FD6AD CRC32 hash (skip zero) : E7A1F5C7 AccurateRip signature : 1E2F18AB ->Track not present in AccurateRip database. Statistics Read error : 0 Skipped (treated as error) : 0 Edge jitter error (maybe fixed) : 0 Atom jitter error (maybe fixed) : 0 Drift error (maybe fixed) : 0 Dropped bytes error (maybe fixed) : 0 Duplicated bytes error (maybe fixed) : 0 Inconsistency in error sectors : 0

Track 02 Filename : /Users/iFamily/Music/iCollection/Высоцкий. Спасибо что живой/2011 - Я был душой дурного общества.../02 Владимир Высоцкий - Красное, зеленое.m4a Pre-gap length : 00:02:00

Track gain : -8.16 dB Peak : 0.998840 CRC32 hash (test run) : E013DC66 CRC32 hash : E013DC66 CRC32 hash (skip zero) : 5EDF19D1 AccurateRip signature : 4C22788D ->Track not present in AccurateRip database. Statistics Read error : 0 Skipped (treated as error) : 0 Edge jitter error (maybe fixed) : 0 Atom jitter error (maybe fixed) : 0 Drift error (maybe fixed) : 0 Dropped bytes error (maybe fixed) : 0 Duplicated bytes error (maybe fixed) : 0 Inconsistency in error sectors : 0

Track 03 Filename : /Users/iFamily/Music/iCollection/Высоцкий. Спасибо что живой/2011 - Я был душой дурного общества.../03 Владимир Высоцкий - Наводчица.m4a Pre-gap length : 00:02:00

Track gain : -6.20 dB Peak : 0.998840 CRC32 hash (test run) : 3F33C4A5 CRC32 hash : 3F33C4A5 CRC32 hash (skip zero) : 230FC548 AccurateRip signature : EB0CF69C ->Track not present in AccurateRip database. Statistics Read error : 0 Skipped (treated as error) : 0 Edge jitter error (maybe fixed) : 0 Atom jitter error (maybe fixed) : 0 Drift error (maybe fixed) : 0 Dropped bytes error (maybe fixed) : 0 Duplicated bytes error (maybe fixed) : 0 Inconsistency in error sectors : 0

Track 04 Filename : /Users/iFamily/Music/iCollection/Высоцкий. Спасибо что живой/2011 - Я был душой дурного общества.../04 Владимир Высоцкий - Тот, кто раньше с нею был.m4a Pre-gap length : 00:02:00

Track gain : -7.30 dB Peak : 0.998840 CRC32 hash (test run) : A09B991C CRC32 hash : A09B991C CRC32 hash (skip zero) : C9E6978A AccurateRip signature : 5F60E6DD ->Track not present in AccurateRip database. Statistics Read error : 0 Skipped (treated as error) : 0 Edge jitter error (maybe fixed) : 0 Atom jitter error (maybe fixed) : 0 Drift error (maybe fixed) : 0 Dropped bytes error (maybe fixed) : 0 Duplicated bytes error (maybe fixed) : 0 Inconsistency in error sectors : 0

Track 05 Filename : /Users/iFamily/Music/iCollection/Высоцкий. Спасибо что живой/2011 - Я был душой дурного общества.../05 Владимир Высоцкий - Гитара.m4a Pre-gap length : 00:02:00

Track gain : -8.39 dB Peak : 0.999725 CRC32 hash (test run) : 724B906E CRC32 hash : 724B906E CRC32 hash (skip zero) : B1AC283D AccurateRip signature : EB8B4490 ->Track not present in AccurateRip database. Statistics Read error : 0 Skipped (treated as error) : 0 Edge jitter error (maybe fixed) : 0 Atom jitter error (maybe fixed) : 0 Drift error (maybe fixed) : 0 Dropped bytes error (maybe fixed) : 0 Duplicated bytes error (maybe fixed) : 0 Inconsistency in error sectors : 0

Track 06 Filename : /Users/iFamily/Music/iCollection/Высоцкий. Спасибо что живой/2011 - Я был душой дурного общества.../06 Владимир Высоцкий - Не уводите меня из весны .m4a Pre-gap length : 00:02:00

Track gain : -7.99 dB Peak : 0.978333 CRC32 hash (test run) : 7CE71640 CRC32 hash : 7CE71640 CRC32 hash (skip zero) : D3BEDF55 AccurateRip signature : D19C5245 ->Track not present in AccurateRip database. Statistics Read error : 0 Skipped (treated as error) : 0 Edge jitter error (maybe fixed) : 0 Atom jitter error (maybe fixed) : 0 Drift error (maybe fixed) : 0 Dropped bytes error (maybe fixed) : 0 Duplicated bytes error (maybe fixed) : 0 Inconsistency in error sectors : 0

Track 07 Filename : /Users/iFamily/Music/iCollection/Высоцкий. Спасибо что живой/2011 - Я был душой дурного общества.../07 Владимир Высоцкий - За меня невеста отрыдает честно....m4a Pre-gap length : 00:02:00

Track gain : -8.31 dB Peak : 0.998840 CRC32 hash (test run) : 7BDA0ECC CRC32 hash : 7BDA0ECC CRC32 hash (skip zero) : F8CD1883 AccurateRip signature : 0B416D25 ->Track not present in AccurateRip database. Statistics Read error : 0 Skipped (treated as error) : 0 Edge jitter error (maybe fixed) : 0 Atom jitter error (maybe fixed) : 0 Drift error (maybe fixed) : 0 Dropped bytes error (maybe fixed) : 0 Duplicated bytes error (maybe fixed) : 0 Inconsistency in error sectors : 0

Track 08 Filename : /Users/iFamily/Music/iCollection/Высоцкий. Спасибо что живой/2011 - Я был душой дурного общества.../08 Владимир Высоцкий - Я в деле.m4a Pre-gap length : 00:02:00

Track gain : -7.92 dB Peak : 0.998840 CRC32 hash (test run) : A89AC242 CRC32 hash : A89AC242 CRC32 hash (skip zero) : 218699B5 AccurateRip signature : BA86A048 ->Track not present in AccurateRip database. Statistics Read error : 0 Skipped (treated as error) : 0 Edge jitter error (maybe fixed) : 0 Atom jitter error (maybe fixed) : 0 Drift error (maybe fixed) : 0 Dropped bytes error (maybe fixed) : 0 Duplicated bytes error (maybe fixed) : 0 Inconsistency in error sectors : 0

Track 09 Filename : /Users/iFamily/Music/iCollection/Высоцкий. Спасибо что живой/2011 - Я был душой дурного общества.../09 Владимир Высоцкий - Песня про стукача.m4a Pre-gap length : 00:02:00

Track gain : -7.03 dB Peak : 0.892120 CRC32 hash (test run) : B8CE539F CRC32 hash : B8CE539F CRC32 hash (skip zero) : 07D7BC9C AccurateRip signature : 19BA68FA ->Track not present in AccurateRip database. Statistics Read error : 0 Skipped (treated as error) : 0 Edge jitter error (maybe fixed) : 0 Atom jitter error (maybe fixed) : 0 Drift error (maybe fixed) : 0 Dropped bytes error (maybe fixed) : 0 Duplicated bytes error (maybe fixed) : 0 Inconsistency in error sectors : 0

Track 10 Filename : /Users/iFamily/Music/iCollection/Высоцкий. Спасибо что живой/2011 - Я был душой дурного общества.../10 Владимир Высоцкий - Эй, шофер, вези - Бутырский хутор....m4a Pre-gap length : 00:02:00

Track gain : -7.91 dB Peak : 0.922089 CRC32 hash (test run) : 4191FE3F CRC32 hash : 4191FE3F CRC32 hash (skip zero) : ADCE9323 AccurateRip signature : 8BF0F603 ->Track not present in AccurateRip database. Statistics Read error : 0 Skipped (treated as error) : 0 Edge jitter error (maybe fixed) : 0 Atom jitter error (maybe fixed) : 0 Drift error (maybe fixed) : 0 Dropped bytes error (maybe fixed) : 0 Duplicated bytes error (maybe fixed) : 0 Inconsistency in error sectors : 0

Track 11 Filename : /Users/iFamily/Music/iCollection/Высоцкий. Спасибо что живой/2011 - Я был душой дурного общества.../11 Владимир Высоцкий - Банька по-белому.m4a Pre-gap length : 00:02:00

Track gain : -8.19 dB Peak : 0.998932 CRC32 hash (test run) : A3E71854 CRC32 hash : A3E71854 CRC32 hash (skip zero) : 94456EDD AccurateRip signature : 3A438AC0 ->Track not present in AccurateRip database. Statistics Read error : 0 Skipped (treated as error) : 0 Edge jitter error (maybe fixed) : 0 Atom jitter error (maybe fixed) : 0 Drift error (maybe fixed) : 0 Dropped bytes error (maybe fixed) : 0 Duplicated bytes error (maybe fixed) : 0 Inconsistency in error sectors : 0

Track 12 Filename : /Users/iFamily/Music/iCollection/Высоцкий. Спасибо что живой/2011 - Я был душой дурного общества.../12 Владимир Высоцкий - Разбойничья.m4a Pre-gap length : 00:02:00

Track gain : -5.07 dB Peak : 0.999725 CRC32 hash (test run) : DDD94C70 CRC32 hash : DDD94C70 CRC32 hash (skip zero) : AA26100F AccurateRip signature : EF3C12D2 ->Track not present in AccurateRip database. Statistics Read error : 0 Skipped (treated as error) : 0 Edge jitter error (maybe fixed) : 0 Atom jitter error (maybe fixed) : 0 Drift error (maybe fixed) : 0 Dropped bytes error (maybe fixed) : 0 Duplicated bytes error (maybe fixed) : 0 Inconsistency in error sectors : 0

Track 13 Filename : /Users/iFamily/Music/iCollection/Высоцкий. Спасибо что живой/2011 - Я был душой дурного общества.../13 Владимир Высоцкий - Был побег на рывок.m4a Pre-gap length : 00:02:00

Track gain : -7.22 dB Peak : 0.999664 CRC32 hash (test run) : 259D31CF CRC32 hash : 259D31CF CRC32 hash (skip zero) : DE9EA683 AccurateRip signature : 933987FA ->Track not present in AccurateRip database. Statistics Read error : 0 Skipped (treated as error) : 0 Edge jitter error (maybe fixed) : 0 Atom jitter error (maybe fixed) : 0 Drift error (maybe fixed) : 0 Dropped bytes error (maybe fixed) : 0 Duplicated bytes error (maybe fixed) : 0 Inconsistency in error sectors : 0

No errors occurred

End of status report
 
Exact Audio Copy V1.0 beta 1 from 15. November 2010

Отчёт EAC об извлечении, выполненном 24. ноября 2011, 18:27

Владимир Высоцкий / Летела жизнь в плохом автомобиле

Дисковод: _NEC DV-5800E Adapter: 0 ID: 1

Режим чтения : ДостоверностьИспользование точного потока : ДаОтключение кэша аудио : ДаИспользование указателей C2 : Нет

Коррекция смещения при чтении : 6Способность читать области Lead-in и Lead-out : НетЗаполнение пропущенных сэмплов тишиной : ДаУдаление блоков с тишиной в начале и конце : НетПри вычислениях CRC использовались нулевые сэмплы : ДаИнтерфейс : Установленный внешний ASPI-интерфейс

Выходной формат : Внутренние WAV-операцииФормат сэмплов : 44.100 Гц; 16 бит; стерео

TOC извлечённого CD

Трек | Старт | Длительность | Начальный сектор | Конечный сектор --------------------------------------------------------------------- 1 | 0:00.00 | 1:34.22 | 0 | 7071 2 | 1:34.22 | 1:43.53 | 7072 | 14849 3 | 3:18.00 | 2:49.62 | 14850 | 27586 4 | 6:07.62 | 3:01.31 | 27587 | 41192 5 | 9:09.18 | 2:02.05 | 41193 | 50347 6 | 11:11.23 | 2:54.40 | 50348 | 63437 7 | 14:05.63 | 3:39.12 | 63438 | 79874 8 | 17:45.00 | 2:48.56 | 79875 | 92530 9 | 20:33.56 | 3:00.13 | 92531 | 106043 10 | 23:33.69 | 3:37.35 | 106044 | 122353 11 | 27:11.29 | 4:39.56 | 122354 | 143334 12 | 31:51.10 | 4:27.22 | 143335 | 163381 13 | 36:18.32 | 2:50.23 | 163382 | 176154

Характеристики диапазона извлечения и сообщения об ошибках

Выбранный диапазон

Имя файла C:\Documents and Settings\Admin\Рабочий стол\Высоцкий Владимир - Летела жизнь в плохом автомобиле (2011г.)\Владимир Высоцкий - Летела жизнь в плохом автомобиле.wav

Пиковый уровень 100.0 %0.7 X Качество диапазона 100.0 % CRC теста 55428DAB CRC копии 55428DAB Копирование... OK

Ошибок не произошло

AccurateRip: сводка

Трек 1 нет в базе данныхТрек 2 нет в базе данныхТрек 3 нет в базе данныхТрек 4 нет в базе данныхТрек 5 нет в базе данныхТрек 6 нет в базе данныхТрек 7 нет в базе данныхТрек 8 нет в базе данныхТрек 9 нет в базе данныхТрек 10 нет в базе данныхТрек 11 нет в базе данныхТрек 12 нет в базе данныхТрек 13 нет в базе данных

Ни одного трека нет в базе AccurateRip

Конец отчёта
 
Exact Audio Copy V1.0 beta 1 from 15. November 2010

Отчёт EAC об извлечении, выполненном 1. декабря 2011, 18:08

Владимир Высоцкий / Больно мне за наш СССР

Дисковод: _NEC DV-5800E Adapter: 0 ID: 1

Режим чтения : ДостоверностьИспользование точного потока : ДаОтключение кэша аудио : ДаИспользование указателей C2 : Нет

Коррекция смещения при чтении : 6Способность читать области Lead-in и Lead-out : НетЗаполнение пропущенных сэмплов тишиной : ДаУдаление блоков с тишиной в начале и конце : НетПри вычислениях CRC использовались нулевые сэмплы : ДаИнтерфейс : Установленный внешний ASPI-интерфейс

Выходной формат : Внутренние WAV-операцииФормат сэмплов : 44.100 Гц; 16 бит; стерео

TOC извлечённого CD

Трек | Старт | Длительность | Начальный сектор | Конечный сектор --------------------------------------------------------------------- 1 | 0:00.00 | 3:16.44 | 0 | 14743 2 | 3:16.44 | 2:35.32 | 14744 | 26400 3 | 5:52.01 | 1:50.34 | 26401 | 34684 4 | 7:42.35 | 4:49.68 | 34685 | 56427 5 | 12:32.28 | 1:36.34 | 56428 | 63661 6 | 14:08.62 | 1:48.63 | 63662 | 71824 7 | 15:57.50 | 1:33.09 | 71825 | 78808 8 | 17:30.59 | 1:40.73 | 78809 | 86381 9 | 19:11.57 | 1:30.58 | 86382 | 93189 10 | 20:42.40 | 1:17.13 | 93190 | 98977 11 | 21:59.53 | 0:45.12 | 98978 | 102364 12 | 22:44.65 | 1:53.51 | 102365 | 110890 13 | 24:38.41 | 1:55.12 | 110891 | 119527 14 | 26:33.53 | 2:45.19 | 119528 | 131921

Характеристики диапазона извлечения и сообщения об ошибках

Выбранный диапазон

Имя файла C:\Documents and Settings\Admin\Рабочий стол\Высоцкий Владимир - Больно мне за наш СССР (2011г.)\Владимир Высоцкий - Больно мне за наш СССР.wav

Пиковый уровень 99.9 %0.8 X Качество диапазона 99.9 % CRC теста F526C3F2 CRC копии F526C3F2 Копирование... OK

Ошибок не произошло

AccurateRip: сводка

Трек 1 нет в базе данныхТрек 2 нет в базе данныхТрек 3 нет в базе данныхТрек 4 нет в базе данныхТрек 5 нет в базе данныхТрек 6 нет в базе данныхТрек 7 нет в базе данныхТрек 8 нет в базе данныхТрек 9 нет в базе данныхТрек 10 нет в базе данныхТрек 11 нет в базе данныхТрек 12 нет в базе данныхТрек 13 нет в базе данныхТрек 14 нет в базе данных

Ни одного трека нет в базе AccurateRip

Конец отчёта









Рекомендуемая программа для открытия файлов представленного формата. (Free)

Доп. информация:
Обложки вшиты. Сканов нет.
Официальный сайт издательства Амфора - amphora.ru


Трекер:  [ 02-Дек-2011 09:13 ]

  

Скачать .torrent

Размер .torrent файла 34 KB


Размер: 614 MB
Хэш (hash) релиза: d264637d8c88d98ac1338a2489edcb0f3ff98c52

Еще никто не оставлял запись к записи скачать торрент Владимир Высоцкий - Высоцкий. Спасибо, что живой . Будь первым!

!Обратная связь