Скачать через торрент музыку Иван Купала - Ящер бесплатно без регистрации torrent

Если у вас наблюдаются проблемы со скриншотами, переходом по ссылками, скачиванием торрентов - проблемы в блокировщике рекламы AdBlock. #хорошегоДня!


Статистика раздачи
Размер:  211 MB   |    Зарегистрирован:  5 лет 9 месяцев   |    .torrent скачан:  49 раз   |   
Раздают:  1  
   
Загрузка...
 
Автор Сообщение

Galfimbul

avatar Galfimbul


Иван Купала - Ящер

Страна: Россия
Жанр: Ethnic/Folk/Pop
Продолжительность: 00:03:49
Год выпуска: 2002 г.
Качество: DVD
Контейнер: VOB
Видео кодек: MPEG2
Аудио кодек: PCM
Видео: MPEG2 Video, 704х480, 4:3, 6 000 kbps, 29.970 fps
Аудио: LPCM, 1 536 kbps, 48.0 kHz, 2 channels
General
Format : MPEG-PS
File size : 211 MiB
Duration : 3mn 49s
Overall bit rate : 7 720 Kbps
Video #224
ID : 224 (0xE0)
Format : MPEG Video
Format version : Version 2
Format profile : Main@Main
Format settings, BVOP : Yes
Format settings, Matrix : Default
Format settings, GOP : M=3, N=15
Duration : 3mn 49s
Bit rate mode : Variable
Bit rate : 6 000 Kbps
Width : 704 pixels
Height : 480 pixels
Display aspect ratio : 4:3
Frame rate : 29.970 fps
Standard : NTSC
Color space : YUV
Chroma subsampling : 4:2:0
Bit depth : 8 bits
Scan type : Interlaced
Scan order : Bottom Field First
Compression mode : Lossy
Bits/(Pixel*Frame) : 0.592
Stream size : 165 MiB (78%)
Audio #189-160
ID : 189 (0xBD)-160 (0xA0)
Format : PCM
Format settings, Endianness : Big
Format settings, Sign : Signed
Muxing mode : DVD-Video
Duration : 3mn 49s
Bit rate mode : Constant
Bit rate : 1 536 Kbps
Channel(s) : 2 channels
Channel positions : Front: L R
Sampling rate : 48.0 KHz
Bit depth : 16 bits
Delay relative to video : -289ms
Stream size : 42.1 MiB (20%)


Трекер:  [ 07-Дек-2011 16:58 ]

  

Скачать .torrent

Размер .torrent файла 17 KB


Размер: 211 MB
Хэш (hash) релиза: b2eea48a5ffe542404c976083de99699c0f555a9

Еще никто не оставлял запись к записи скачать торрент Иван Купала - Ящер . Будь первым!

!Обратная связь