Скачать через торрент музыку Призрак и Тьма The Ghost And The Darkness бесплатно без регистрации torrent

Если у вас наблюдаются проблемы со скриншотами, переходом по ссылками, скачиванием торрентов - проблемы в блокировщике рекламы AdBlock. #хорошегоДня!


Статистика раздачи
Размер:  247 MB   |    Зарегистрирован:  5 лет 9 месяцев   |    .torrent скачан:  39 раз   |   
Раздают:  1  
   
Загрузка...
 
Автор Сообщение

Galfimbul

avatar Galfimbul


Призрак и Тьма / The Ghost And The Darkness

Жанр: Score
Композитор: Jerry Goldsmith
Год выпуска диска: 1996
Страна-производитель диска: Германия
Издатель (лейбл): Hollywood Records/Edel
Номер по каталогу: 0120892HWR

Аудиокодек: FLAC (*.flac)
Тип рипа: tracks+.cue
Битрейт аудио: lossless
Продолжительность: 53:27

Источник: what.cd
Наличие сканов в содержимом раздачи: да

Треклист:
01 Jerry Goldsmith - Theme from ''The Ghost And The Darkness'' (2:12)
02 Jerry Goldsmith - The Bridge (4:10)
03 Jerry Goldsmith - Catch A train (2:02)
04 Jerry Goldsmith - Lions Attack (5:18)
05 Jerry Goldsmith - First Time (2:00)
06 Jerry Goldsmith - Starling's Death (5:58)
07 Jerry Goldsmith - Lions Reign (2:41)
08 Jerry Goldsmith - Preparations (2:47)
09 Jerry Goldsmith - Remingron's Death (2:32)
10 Jerry Goldsmith - Prepare For Battle (2:00)
11 Jerry Goldsmith - Final Attack (2:53)
12 Jerry Goldsmith - Welcome To Tsavo (5:00)
13 The Worldbeaters feat. Nusrat Fateh Ali Khan - Hamara Haath (''Our Hands Unite'') (3:05)
14 The Worldbeaters feat. Nusrat Fateh Ali Khan - Dueling Chants, Part 1- ''Jungal Bahar'' (3:21)
15 The Worldbeaters - Safari Ya Bamba (''Journey To Bamba'') (2:33)
16 The Worldbeaters - Terere Obande (2:42)
17 The Worldbeaters - Iye Oyeha (2:14)
 
Exact Audio Copy V0.99 prebeta 4 from 23. January 2008

EAC extraction logfile from 29. March 2009, 23:13

Jerry Goldsmith / The Ghost and the Darkness

Used drive : HP DVD Writer 840x Adapter: 1 ID: 0

Read mode : SecureUtilize accurate stream : YesDefeat audio cache : YesMake use of C2 pointers : No

Read offset correction : 102Overread into Lead-In and Lead-Out : NoFill up missing offset samples with silence : YesDelete leading and trailing silent blocks : NoNull samples used in CRC calculations : YesUsed interface : Installed external ASPI interfaceGap handling : Appended to previous track

Used output format : User Defined EncoderSelected bitrate : 192 kBit/sQuality : HighAdd ID3 tag : NoCommand line compressor : C:\Program Files\FLAC\flac.exeAdditional command line options : -8 -A tukey(0.25) -A gauss(0.1875) -b 4096 -V -T "artist=%a" -T "title=%t" -T "album=%g" -T "date=%y" -T "tracknumber=%n" -T "genre=%m" %s --sector-align

TOC of the extracted CD

Track | Start | Length | Start sector | End sector --------------------------------------------------------- 1 | 0:00.00 | 2:11.52 | 0 | 9876 2 | 2:11.52 | 4:09.50 | 9877 | 28601 3 | 6:21.27 | 2:02.25 | 28602 | 37776 4 | 8:23.52 | 5:18.08 | 37777 | 61634 5 | 13:41.60 | 2:00.22 | 61635 | 70656 6 | 15:42.07 | 5:57.43 | 70657 | 97474 7 | 21:39.50 | 2:40.60 | 97475 | 109534 8 | 24:20.35 | 2:46.57 | 109535 | 122041 9 | 27:07.17 | 2:31.58 | 122042 | 133424 10 | 29:39.00 | 2:00.22 | 133425 | 142446 11 | 31:39.22 | 2:53.35 | 142447 | 155456 12 | 34:32.57 | 4:59.65 | 155457 | 177946 13 | 39:32.47 | 3:05.28 | 177947 | 191849 14 | 42:38.00 | 3:20.57 | 191850 | 206906 15 | 45:58.57 | 2:32.43 | 206907 | 218349 16 | 48:31.25 | 2:42.22 | 218350 | 230521 17 | 51:13.47 | 2:13.40 | 230522 | 240536

Track 1

Filename N:\Music\The Ghost And The Darkness (1996,FLAC) - Jerry Goldsmith\The Ghost And The Darkness (1996, FLAC) - Jerry Goldsmith\01 - Theme From 'The Ghost And The Darkness'.wav

Pre-gap length 0:00:02.00

Peak level 82.3 % Track quality 100.0 % Test CRC 942617AA Copy CRC 942617AA Copy OK

Track 2

Filename N:\Music\The Ghost And The Darkness (1996,FLAC) - Jerry Goldsmith\The Ghost And The Darkness (1996, FLAC) - Jerry Goldsmith\02 - The Bridge.wav

Pre-gap length 0:00:01.20

Peak level 94.4 % Track quality 100.0 % Test CRC 8951B4E1 Copy CRC 8951B4E1 Copy OK

Track 3

Filename N:\Music\The Ghost And The Darkness (1996,FLAC) - Jerry Goldsmith\The Ghost And The Darkness (1996, FLAC) - Jerry Goldsmith\03 - Catch A train.wav

Pre-gap length 0:00:01.46

Peak level 46.4 % Track quality 100.0 % Test CRC FACC84EB Copy CRC FACC84EB Copy OK

Track 4

Filename N:\Music\The Ghost And The Darkness (1996,FLAC) - Jerry Goldsmith\The Ghost And The Darkness (1996, FLAC) - Jerry Goldsmith\04 - Lions Attack.wav

Pre-gap length 0:00:01.73

Peak level 94.8 % Track quality 99.9 % Test CRC 205EBD42 Copy CRC 205EBD42 Copy OK

Track 5

Filename N:\Music\The Ghost And The Darkness (1996,FLAC) - Jerry Goldsmith\The Ghost And The Darkness (1996, FLAC) - Jerry Goldsmith\05 - First Time.wav

Pre-gap length 0:00:01.66

Peak level 96.7 % Track quality 100.0 % Test CRC 239E3F3A Copy CRC 239E3F3A Copy OK

Track 6

Filename N:\Music\The Ghost And The Darkness (1996,FLAC) - Jerry Goldsmith\The Ghost And The Darkness (1996, FLAC) - Jerry Goldsmith\06 - Starling's Death.wav

Peak level 93.3 % Track quality 100.0 % Test CRC C86979D1 Copy CRC C86979D1 Copy OK

Track 7

Filename N:\Music\The Ghost And The Darkness (1996,FLAC) - Jerry Goldsmith\The Ghost And The Darkness (1996, FLAC) - Jerry Goldsmith\07 - Lions Reign.wav

Pre-gap length 0:00:01.64

Peak level 94.6 % Track quality 100.0 % Test CRC 8F89A7DD Copy CRC 8F89A7DD Copy OK

Track 8

Filename N:\Music\The Ghost And The Darkness (1996,FLAC) - Jerry Goldsmith\The Ghost And The Darkness (1996, FLAC) - Jerry Goldsmith\08 - Preparations.wav

Pre-gap length 0:00:02.37

Peak level 85.3 % Track quality 100.0 % Test CRC 20C3DFDC Copy CRC 20C3DFDC Copy OK

Track 9

Filename N:\Music\The Ghost And The Darkness (1996,FLAC) - Jerry Goldsmith\The Ghost And The Darkness (1996, FLAC) - Jerry Goldsmith\09 - Remingron's Death.wav

Peak level 89.7 % Track quality 99.9 % Test CRC 4431988C Copy CRC 4431988C Copy OK

Track 10

Filename N:\Music\The Ghost And The Darkness (1996,FLAC) - Jerry Goldsmith\The Ghost And The Darkness (1996, FLAC) - Jerry Goldsmith\10 - Prepare For Battle.wav

Pre-gap length 0:00:01.66

Peak level 97.2 % Track quality 100.0 % Test CRC 414AE150 Copy CRC 414AE150 Copy OK

Track 11

Filename N:\Music\The Ghost And The Darkness (1996,FLAC) - Jerry Goldsmith\The Ghost And The Darkness (1996, FLAC) - Jerry Goldsmith\11 - Final Attack.wav

Pre-gap length 0:00:01.86

Peak level 100.0 % Track quality 100.0 % Test CRC B0BD90DF Copy CRC B0BD90DF Copy OK

Track 12

Filename N:\Music\The Ghost And The Darkness (1996,FLAC) - Jerry Goldsmith\The Ghost And The Darkness (1996, FLAC) - Jerry Goldsmith\12 - Welcome To Tsavo.wav

Pre-gap length 0:00:01.93

Peak level 99.8 % Track quality 99.9 % Test CRC 43B0138F Copy CRC 43B0138F Copy OK

Track 13

Filename N:\Music\The Ghost And The Darkness (1996,FLAC) - Jerry Goldsmith\The Ghost And The Darkness (1996, FLAC) - Jerry Goldsmith\13 - Hamara Haath (' Our Hands Unite').wav

Pre-gap length 0:00:02.56

Peak level 33.6 % Track quality 100.0 % Test CRC 3A63DB58 Copy CRC 3A63DB58 Copy OK

Track 14

Filename N:\Music\The Ghost And The Darkness (1996,FLAC) - Jerry Goldsmith\The Ghost And The Darkness (1996, FLAC) - Jerry Goldsmith\14 - Dueling Chants , Part 1- 'Jungal Bahar'.wav

Pre-gap length 0:00:02.57

Peak level 20.2 % Track quality 100.0 % Test CRC 70FD7818 Copy CRC 70FD7818 Copy OK

Track 15

Filename N:\Music\The Ghost And The Darkness (1996,FLAC) - Jerry Goldsmith\The Ghost And The Darkness (1996, FLAC) - Jerry Goldsmith\15 - Safari Ya Bamba ('Journey To Bamba').wav

Pre-gap length 0:00:02.56

Peak level 34.5 % Track quality 100.0 % Test CRC 9DD9744A Copy CRC 9DD9744A Copy OK

Track 16

Filename N:\Music\The Ghost And The Darkness (1996,FLAC) - Jerry Goldsmith\The Ghost And The Darkness (1996, FLAC) - Jerry Goldsmith\16 - Terere Obande.wav

Pre-gap length 0:00:02.57

Peak level 44.3 % Track quality 100.0 % Test CRC 2F6616ED Copy CRC 2F6616ED Copy OK

Track 17

Filename N:\Music\The Ghost And The Darkness (1996,FLAC) - Jerry Goldsmith\The Ghost And The Darkness (1996, FLAC) - Jerry Goldsmith\17 - Iye Oyeha.wav

Pre-gap length 0:00:02.56

Peak level 32.5 % Track quality 100.0 % Test CRC C5E43360 Copy CRC C5E43360 Copy OK

No errors occurred

End of status report
 
REM GENRE SoundtrackREM DATE 1996REM DISCID D60C8711REM COMMENT "ExactAudioCopy v0.99pb4"PERFORMER "Jerry Goldsmith"TITLE "The Ghost And The Darkness"FILE "01 Jerry Goldsmith - Theme from ''The Ghost And The Darkness''.wav" WAVE TRACK 01 AUDIO TITLE "Theme from ''The Ghost And The Darkness''" PERFORMER "Jerry Goldsmith" INDEX 01 00:00:00 TRACK 02 AUDIO TITLE "The Bridge" PERFORMER "Jerry Goldsmith" INDEX 00 02:10:37FILE "02 Jerry Goldsmith - The Bridge.wav" WAVE INDEX 01 00:00:00 TRACK 03 AUDIO TITLE "Catch A train" PERFORMER "Jerry Goldsmith" INDEX 00 04:08:15FILE "03 Jerry Goldsmith - Catch A train.wav" WAVE INDEX 01 00:00:00 TRACK 04 AUDIO TITLE "Lions Attack" PERFORMER "Jerry Goldsmith" INDEX 00 02:00:45FILE "04 Jerry Goldsmith - Lions Attack.wav" WAVE INDEX 01 00:00:00 TRACK 05 AUDIO TITLE "First Time" PERFORMER "Jerry Goldsmith" INDEX 00 05:16:33FILE "05 Jerry Goldsmith - First Time.wav" WAVE INDEX 01 00:00:00FILE "06 Jerry Goldsmith - Starling's Death.wav" WAVE TRACK 06 AUDIO TITLE "Starling's Death" PERFORMER "Jerry Goldsmith" INDEX 01 00:00:00 TRACK 07 AUDIO TITLE "Lions Reign" PERFORMER "Jerry Goldsmith" INDEX 00 05:55:70FILE "07 Jerry Goldsmith - Lions Reign.wav" WAVE INDEX 01 00:00:00 TRACK 08 AUDIO TITLE "Preparations" PERFORMER "Jerry Goldsmith" INDEX 00 02:38:32FILE "08 Jerry Goldsmith - Preparations.wav" WAVE INDEX 01 00:00:00FILE "09 Jerry Goldsmith - Remingron's Death.wav" WAVE TRACK 09 AUDIO TITLE "Remingron's Death" PERFORMER "Jerry Goldsmith" INDEX 01 00:00:00 TRACK 10 AUDIO TITLE "Prepare For Battle" PERFORMER "Jerry Goldsmith" INDEX 00 02:30:08FILE "10 Jerry Goldsmith - Prepare For Battle.wav" WAVE INDEX 01 00:00:00 TRACK 11 AUDIO TITLE "Final Attack" PERFORMER "Jerry Goldsmith" INDEX 00 01:58:32FILE "11 Jerry Goldsmith - Final Attack.wav" WAVE INDEX 01 00:00:00 TRACK 12 AUDIO TITLE "Welcome To Tsavo" PERFORMER "Jerry Goldsmith" INDEX 00 02:51:40FILE "12 Jerry Goldsmith - Welcome To Tsavo.wav" WAVE INDEX 01 00:00:00 TRACK 13 AUDIO TITLE "Hamara Haath (''Our Hands Unite'')" PERFORMER "The Worldbeaters feat. Nusrat Fateh Ali Khan" INDEX 00 04:57:23FILE "13 The Worldbeaters feat. Nusrat Fateh Ali Khan - Hamara Haath (''Our Hands Unite'').wav" WAVE INDEX 01 00:00:00 TRACK 14 AUDIO TITLE "Dueling Chants, Part 1- ''Jungal Bahar''" PERFORMER "The Worldbeaters feat. Nusrat Fateh Ali Khan" INDEX 00 03:02:60FILE "14 The Worldbeaters feat. Nusrat Fateh Ali Khan - Dueling Chants, Part 1- ''Jungal Bahar''.wav" WAVE INDEX 01 00:00:00 TRACK 15 AUDIO TITLE "Safari Ya Bamba (''Journey To Bamba'')" PERFORMER "The Worldbeaters" INDEX 00 03:18:15FILE "15 The Worldbeaters - Safari Ya Bamba (''Journey To Bamba'').wav" WAVE INDEX 01 00:00:00 TRACK 16 AUDIO TITLE "Terere Obande" PERFORMER "The Worldbeaters" INDEX 00 02:30:00FILE "16 The Worldbeaters - Terere Obande.wav" WAVE INDEX 01 00:00:00 TRACK 17 AUDIO TITLE "Iye Oyeha" PERFORMER "The Worldbeaters" INDEX 00 02:39:55FILE "17 The Worldbeaters - Iye Oyeha.wav" WAVE INDEX 01 00:00:00
Доп. информация: Подсел что-то я в последнее время на музыку Джерри Голдсмита.
На этот раз музыка к замечательному приключенческому триллеру Стивена Хопкинса.

Стоит также отметить, что данная картина получила премию "Оскар" за монтаж звука, что говорит об исключительной достоверности музыки и шумовых фактур в создании тревожной атмосферы ожидания очередной атаки хищников.



Трекер:  [ 02-Дек-2011 19:02 ]

  

Скачать .torrent

Размер .torrent файла 21 KB


Размер: 247 MB
Хэш (hash) релиза: 363cb34a1d2080bc2a6a24616203e1abd005d855

Еще никто не оставлял запись к записи скачать торрент Призрак и Тьма The Ghost And The Darkness . Будь первым!

!Обратная связь